Filmbol Forum Film İndir BRRip XviD v Sır Tutabilir Misin? (Can You Keep a Secret?) Türkçe Dublaj Brrip Xvid İndir
Mega linklerinin şikayet edilmemesi için global erişime kapatıp sadece yorum yapanlara açıyoruz. Bu linkleri gizleme işlemini mecburen yapıyoruz ve yorum yapmanızın siteye değil size faydası vardır. Teşekürler yazmayı çok görüp, Random/Spam mesajlar atarak Mega linklerini açmaya çalışan kullanıcılara önce süresiz ban, devam ederse IP ban atacağız.
Filmbol'da moderatör olmak ister misiniz? Bizimle iletişime geçmek için tıklayın!
Sır Tutabilir Misin? (Can You Keep a Secret?) Türkçe Dublaj Brrip Xvid İndir
BroserBros
Sır Tutabilir Misin? (Can You Keep a Secret?) Türkçe Dublaj Brrip Xvid İndir
2
469
  • Derecelendirme: 5/5 - 1 oy
  • 1
  • 2
  • 3
  • 4
  • 5
Konuyu Okuyanlar:2 Ziyaretçi
Şuan Online!
Filmin Yayınlanma Tarihi: 2018 
WWW
Şuan Online!
BroserBros Kurucu Admin
*******
Admin










Sır Tutabilir Misin?



Teknik Detaylar


Kod :
General
Complete name                            : Sır.Tutabilir.Misin.2019.WEB-DL.XviD.TR.Filmbol.avi
Format                                   : AVI
Format/Info                              : Audio Video Interleave
File size                                : 1.12 GiB
Duration                                 : 1h 34mn
Overall bit rate                         : 1 691 Kbps

Video
ID                                       : 0
Format                                   : MPEG-4 Visual
Format profile                           : [email protected]
Format settings, BVOP                    : No
Format settings, QPel                    : No
Format settings, GMC                     : No warppoints
Format settings, Matrix                  : Default (H.263)
Codec ID                                 : XVID
Codec ID/Hint                            : XviD
Duration                                 : 1h 34mn
Bit rate                                 : 1 550 Kbps
Width                                    : 720 pixels
Height                                   : 388 pixels
Display aspect ratio                     : 1.85:1
Frame rate                               : 24.000 fps
Color space                              : YUV
Chroma subsampling                       : 4:2:0
Bit depth                                : 8 bits
Scan type                                : Progressive
Compression mode                         : Lossy
Bits/(Pixel*Frame)                       : 0.231
Stream size                              : 1.02 GiB (92%)
Writing library                          : Lavc58.1.100

Audio
ID                                       : 1
Format                                   : MPEG Audio
Format version                           : Version 1
Format profile                           : Layer 3
Mode                                     : Joint stereo
Mode extension                           : MS Stereo
Codec ID                                 : 55
Codec ID/Hint                            : MP3
Duration                                 : 1h 34mn
Bit rate mode                            : Constant
Bit rate                                 : 128 Kbps
Channel(s)                               : 2 channels
Sampling rate                            : 48.0 KHz
Compression mode                         : Lossy
Stream size                              : 86.6 MiB (8%)
Alignment                                : Aligned on interleaves
Interleave, duration                     : 24 ms (0.58 video frame)

Film Detayları


Sır Tutabilir Misin?

Sır Tutabilir Misin?

Sır Tutabilir Misin?


Film Fragmanı


Film Detayları

Brrip İndir



Uptobox ile indir

1Fichier ile indir

1Fichier'den İndiremiyor musun? Tıklayın!


Mega linki şuan da gizli. Kullanıma açmak için konuya yorum yapın ve ardından sayfayı yenileyin.

Mega


MediaFire ile indir

Şuan Offine!
Şuan Offine!
komador06 Süper Üye
***
Super Üye

  • Konular0
  • Mesajlar28
  • Rep puanı 0
teşekkürler..
Şuan Online!
Şuan Online!
Furkan61 Süper Üye
***
Super Üye

  • Konular0
  • Mesajlar127
  • Rep puanı 1
Mükemmel Film Alexandra Daddario harika en sevdiğim oyuncu


Konu ile Alakalı Benzer Konular
Konular Yazar Yorumlar Okunma Son Yorum
Filmin Yayınlanma Tarihi: 2019
Uzaydan Gelen Renk (Color Out of Space) - 2019 - TR - BRRip XviD | tt5073642 TheSteeL 0 26 , Saat: 20:57
Son Yorum: TheSteeL
  I Care a Lot (I Care a Lot) - 2020 - TR - BRRip XviD | tt9893250 TheSteeL 0 24 , Saat: 20:51
Son Yorum: TheSteeL
Filmin Yayınlanma Tarihi: 2019
Onur Madalyası (The Last Full Measure) - 2019 - TR - BRRip XviD | tt0783640 TheSteeL 2 80 , Saat: 19:56
Son Yorum: TheSteeL
Filmin Yayınlanma Tarihi: 2014
300: Bir İmparatorluğun Yükselişi (300: Rise of an Empire - 300 Spartalı 2) - 2014 - TR - BRRip XviD BroserBros 2 233 , Saat: 12:54
Son Yorum: Furkan61
Filmin Yayınlanma Tarihi: 2019
Silahlar Fora (Guns Akimbo) - 2019 - TR - BRRip XviD | tt6902676 TheSteeL 0 46 06-03-2021, Saat: 22:06
Son Yorum: TheSteeL

Hızlı Menü: