Filmbol Forum Film İndir 1080P v Sır Tutabilir Misin? (Can You Keep a Secret?) Türkçe Dublaj BLURAY 1080P İndir
Filmbol'da moderatör olmak ister misiniz? Bizimle iletişime geçmek için tıklayın!
Sır Tutabilir Misin? (Can You Keep a Secret?) Türkçe Dublaj BLURAY 1080P İndir
BroserBros
Sır Tutabilir Misin? (Can You Keep a Secret?) Türkçe Dublaj BLURAY 1080P İndir
2
384
  • Derecelendirme: 0/5 - 0 oy
  • 1
  • 2
  • 3
  • 4
  • 5
Konuyu Okuyanlar:1 Ziyaretçi
Şuan Online!
Filmin Yayınlanma Tarihi: 2018 
Şuan Online!
BroserBros Kurucu Admin
*******
Admin

indirme türü


Bulut + Premium

Vizyon Tarihi


16 Ağustos 2019

Boyutlar


1,52

diller


[TR]

altyazilar


Yok [Eklenebilir]

Video Format: Mkv


Matroska (.MKV)

Video Detay


MPEG-4, 2100 Kbps, 1,39GB

imdb puanı


5,3 / 10,0 / 5,000

süre


94 dakika

Ses Kodek: AC3


Audio Coding 3 (AC3)

Ses Detay


192 Kbps, 2 Kanal, 130Mb

Editör Puanı


5,2

Genislik Yukseklik


1920-1024

sürüm


x264 | 1080P (NF-WEBDL)




Sır Tutabilir Misin?


Film Detayları

Sır Tutabilir Misin?, uçağın düşeceğini zannedip yanında oturan adam tüm sırlarını döken genç bir kadının başına gelenleri konu ediyor. Genç bir kadın olan Emma’nın uçak korkusu vardır ve bir iş seyahatinden döndüğü sırada büyük bir paniğe kapılır. Uçakta yaşanan hafif sarsıntılar sonucu uçağın düşmek üzere olduğunu düşünen Emma, ölmeden önce kendisine sakladığı sırları paylaşmak ister. Son anlarını yaşadığını düşünen Emma, yanında bulunan adamın bir yabancı olduğunu düşünerek ona en özel sırlarını anlatır. Ancak tüm sırlarını anlattığı adam aslında ona pek de yabancı değildir. Genç kadın işe gittiğinde tüm sırlarını döktüğü adamı karşısında görünce oldukça şaşırır. Hayatına dair birçok şey bilen adamın şirketinin genç CEO’su Jack olduğunu öğrenen Emma için artık hiçbir şey eskisi gibi olmayacaktır.

Sır Tutabilir Misin? (Can You Keep a Secret?) Filmi Imdb'den 5,000 kişi tarafından oylandı ve 5,3 puan aldı. Bu film için editör puanı 5,2 olarak belirlendi. İyi Seyirler!


Teknik Detaylar


Kod :
General
Complete name                            : Sır.Tutabilir.Misin.2019.1080p.BLURAY.WEB-DL.x264.TR.Filmbol.mkv
Format                                   : Matroska
Format version                           : Version 4 / Version 2
File size                                : 1.52 GiB
Duration                                 : 1h 34mn
Overall bit rate                         : 2 294 Kbps
Movie name                               : Sır Tutabilir Misin? (2019) - Filmbol.org
Encoded date                             : UTC 2019-12-20 04:00:05
Writing application                      : mkvmerge v35.0.0 ('All The Love In The World') 64-bit
Writing library                          : libebml v1.3.9 + libmatroska v1.5.2

Video
ID                                       : 1
Format                                   : AVC
Format/Info                              : Advanced Video Codec
Format profile                           : High@L4.1
Format settings, CABAC                   : Yes
Format settings, ReFrames                : 4 frames
Codec ID                                 : V_MPEG4/ISO/AVC
Duration                                 : 1h 34mn
Bit rate                                 : 2 100 Kbps
Width                                    : 1 920 pixels
Height                                   : 1 024 pixels
Display aspect ratio                     : 1.85:1
Frame rate mode                          : Constant
Frame rate                               : 24.000 fps
Color space                              : YUV
Chroma subsampling                       : 4:2:0
Bit depth                                : 8 bits
Scan type                                : Progressive
Bits/(Pixel*Frame)                       : 0.045
Stream size                              : 1.39 GiB (92%)
Title                                    : 1080P - Filmbol.org
Writing library                          : x264 core 152
Default                                  : Yes
Forced                                   : No

Audio
ID                                       : 2
Format                                   : AC-3
Format/Info                              : Audio Coding 3
Mode extension                           : CM (complete main)
Format settings, Endianness              : Big
Codec ID                                 : A_AC3
Duration                                 : 1h 34mn
Bit rate mode                            : Constant
Bit rate                                 : 192 Kbps
Channel(s)                               : 2 channels
Channel positions                        : Front: L R
Sampling rate                            : 48.0 KHz
Frame rate                               : 31.250 fps (1536 spf)
Compression mode                         : Lossy
Stream size                              : 130 MiB (8%)
Title                                    : Türkçe - Filmbol.org
Language                                 : Turkish
Default                                  : Yes
Forced                                   : No

Film Detayları


Sır Tutabilir Misin?

Sır Tutabilir Misin?

Sır Tutabilir Misin?


Film Fragmanı


Film Detayları

Mini 1080P İndir



Uptobox ile indir

1Fichier ile indir

1Fichier'den İndiremiyor musun? Tıklayın!


Mega ile indir

MediaFire ile indir

Şuan Offine!
Şuan Offine!
talha16 Yeni Üye
*
Üye

  • Konular0
  • Mesajlar1
  • Rep puanı 0
tEŞEKKÜR
Şuan Offine!
Şuan Offine!
aram458 Yeni Üye
*
Üye

  • Konular0
  • Mesajlar1
  • Rep puanı 0
Kitabını okumuştum filmine de bir şans vereyim diyorum


Konu ile Alakalı Benzer Konular
Konular Yazar Yorumlar Okunma Son Yorum
Filmin Yayınlanma Tarihi: 2020
Deathstroke Şövalyeler ve Ejderhalar (Deathstroke Knights & Dragons: The Movie) - 2020 - TR+ORG - 1080P BroserBros 0 19 , Saat: 18:31
Son Yorum: BroserBros
Filmin Yayınlanma Tarihi: 2019
15 Dakika Savaş (L'intervention) - 2019 - TR+ORG - 1080P BroserBros 0 20 , Saat: 17:42
Son Yorum: BroserBros
Filmin Yayınlanma Tarihi: 2020
Sürprizli Gece (The Sleepover) - 2020 - TR+ORG - 1080P BroserBros 0 21 , Saat: 16:19
Son Yorum: BroserBros
Filmin Yayınlanma Tarihi: 2020
Feride (Feride) - 2020 - TR+ORG - 1080P BroserBros 0 49 22-11-2020, Saat: 20:24
Son Yorum: BroserBros
Filmin Yayınlanma Tarihi: 2019
Gel Babacığına (Come to Daddy) - 2019 - TR+ORG - 1080P BroserBros 0 34 22-11-2020, Saat: 17:43
Son Yorum: BroserBros

Hızlı Menü: