Hoşgeldin, Ziyaretçi: Giriş Yap Üye Ol


stats
Adblock'u kapattıysanız tıklayın.
Hoşgeldiniz!
Filmbol'u tercih ettiğiniz için teşekkürler, ancak ablock kullanarak devam edemezsiniz.
Merak etmeyin. Heryerden ardı ardına çıkan reklamlar görmeyeceksiniz :)

Sadece site içi 1 reklam göreceksin ve bu site gezintini etkilemeyecek.
Konuyu Oyla:
  • Derecelendirme: 0/5 - 0 oy
  • 1
  • 2
  • 3
  • 4
  • 5
Şipşak Aile (Instant Family) Türkçe Dublaj BLURAY m720P İndir
#1
Filmin Yayınlanma Tarihi: 2019 

indirme türü


Bulut + Premium

vizyon tarihi


12 Nisan 2019

Boyutlar


1,43

diller


[TR]

altyazilar


KISIM [Eklenebilir]

Video Format: Mkv


Matroska (.MKV)

Video Detay


MPEG-4, 1050 Kbps, 0,88GB

imdb puanı


7,4 / 10,0 / 51,000

süre


118 dakika

Ses Kodek: AC3


Audio Coding 3 (AC3)

Ses Detay


384 Kbps, 6 Kanal, 324 Mb

Editör Puanı


6,8

Genislik Yukseklik


1280-534

sürüm


x264 | m720P



Film Detayları

Şipşak Aile, çocukları olmayan bir çifti konu olarak almış. Çiftimiz, çocuk edinmek amacıyla sahipsiz çocuklar yurduna gidip, kendilerinin bakabilecekleri minik bir çocuk istemektedirler ancak karşılarına birbirinden tatlı 3 çocuk çıkınca Pete ve Ellie, dayanamaz ve üç çocuğu da evlat edinirler. Bir gecede 3 çocukları olan çift, zaten alışkın olmadıkları ve tecrübelerinin sınırlı olduğu bu çocuklara bakarken biraz zorluk çekeceklerdir. 

Şipşak Aile (Instant Family) Filmi Imdb'den 51,000 kişi tarafından oylandı ve 7,4 puan aldı. Bu film için editör puanı 6,8 olarak belirlendi. İyi Seyirler!


Teknik Detaylar



Kod:
General
Complete name                            : Şipşak.Aile.2018.m720p.BLURAY.x264.TR.Filmbol.mkv
Format                                   : Matroska
Format version                           : Version 4 / Version 2
File size                                : 1.18 GiB
Duration                                 : 1h 58mn
Overall bit rate                         : 1 436 Kbps
Movie name                               : Şipşak Aile (2018) - Filmbol.org
Encoded date                             : UTC 2019-07-19 16:46:28
Writing application                      : mkvmerge v35.0.0 ('All The Love In The World') 64-bit
Writing library                          : libebml v1.3.9 + libmatroska v1.5.2

Video
ID                                       : 1
Format                                   : AVC
Format/Info                              : Advanced Video Codec
Format profile                           : High@L4.1
Format settings, CABAC                   : Yes
Format settings, ReFrames                : 4 frames
Codec ID                                 : V_MPEG4/ISO/AVC
Duration                                 : 1h 58mn
Bit rate                                 : 1 050 Kbps
Width                                    : 1 280 pixels
Height                                   : 534 pixels
Display aspect ratio                     : 2.40:1
Original display aspect ratio            : 2.40:1
Frame rate mode                          : Constant
Frame rate                               : 23.976 (24000/1001) fps
Color space                              : YUV
Chroma subsampling                       : 4:2:0
Bit depth                                : 8 bits
Scan type                                : Progressive
Bits/(Pixel*Frame)                       : 0.064
Stream size                              : 887 MiB (73%)
Title                                    : m720P - Filmbol.org
Writing library                          : x264 core 152
Default                                  : Yes
Forced                                   : No

Audio
ID                                       : 2
Format                                   : AC-3
Format/Info                              : Audio Coding 3
Mode extension                           : CM (complete main)
Format settings, Endianness              : Big
Codec ID                                 : A_AC3
Duration                                 : 1h 58mn
Bit rate mode                            : Constant
Bit rate                                 : 384 Kbps
Channel(s)                               : 6 channels
Channel positions                        : Front: L C R, Side: L R, LFE
Sampling rate                            : 48.0 KHz
Frame rate                               : 31.250 fps (1536 spf)
Compression mode                         : Lossy
Stream size                              : 324 MiB (27%)
Title                                    : Türkçe - Filmbol.org
Language                                 : Turkish
Default                                  : Yes
Forced                                   : No

Text
ID                                       : 3
Format                                   : UTF-8
Codec ID                                 : S_TEXT/UTF8
Codec ID/Info                            : UTF-8 Plain Text
Duration                                 : 1h 57mn
Bit rate                                 : 0 bps
Count of elements                        : 24
Stream size                              : 802 Bytes (0%)
Title                                    : KISIM
Language                                 : Turkish
Default                                  : Yes
Forced                                   : Yes


Film Detayları


Sipsak Aile

Sipsak Aile

Sipsak Aile

Sipsak Aile

Sipsak Aile


Film Fragmanı


Film Detayları

Mini 720P İndir


Turbobit İle İndir

Uptobox ile indir

Tusfiles ile indir

Filerio ile indir

LetsUpload ile indir

MegaUp ile indir

Filmbol'da aşağıdaki linkler sadece üyelere sunulur. Ayrıca bu linklerde link kısaltma servisleri kullanılmaz, linke tek tık ile reklamsız erişirsiniz. Konu'ya yorum yapın ve sayfayı yenileyin. Reklamsız linkler (en az 3 en fazla 5 link) açılmış olacaktır. Not: Filmbol'a üye olmak tamamen ücretsizdir, en az 3 link kuralı 01.07.2019 tarihinden sonraki paylaşımlar için geçerlidir. Ancak çoğu film için en az bir premium link her zaman bulunur.

Mega

Dosyaco

Dosyaupload

Mediafire

Google Drive
 
Cevapla
  


Konu ile Alakalı Benzer Konular
Konular Yazar Yorumlar Okunma Son Yorum
Filmin Yayınlanma Tarihi: 2019 Isn't it Romantic (2019) Türkçe Dublaj BLURAY m720P İndir BroserBros 0 37 29-07-2019, Saat: 20:48
Son Yorum: BroserBros
Filmin Yayınlanma Tarihi: 2019 Erkekler Ne İster? (What Men Want?) Türkçe Dublaj BLURAY m720P İndir BroserBros 0 42 19-07-2019, Saat: 22:36
Son Yorum: BroserBros

Hızlı Menü:


Şu anda bu konuyu okuyanlar: 1 Ziyaretçi