Filmbol Forum Film İndir 1080P v Sindirella (Cinderella) Türkçe Dublaj BLURAY 1080P indir
Mega linklerinin şikayet edilmemesi için global erişime kapatıp sadece yorum yapanlara açıyoruz. Bu linkleri gizleme işlemini mecburen yapıyoruz ve yorum yapmanızın siteye değil size faydası vardır. Teşekürler yazmayı çok görüp, Random/Spam mesajlar atarak Mega linklerini açmaya çalışan kullanıcılara önce süresiz ban, devam ederse IP ban atacağız.
Filmbol'da moderatör olmak ister misiniz? Bizimle iletişime geçmek için tıklayın!
Sindirella (Cinderella) Türkçe Dublaj BLURAY 1080P indir
BroserBros
Sindirella (Cinderella) Türkçe Dublaj BLURAY 1080P indir
2
397
  • Derecelendirme: 0/5 - 0 oy
  • 1
  • 2
  • 3
  • 4
  • 5
Konuyu Okuyanlar:1 Ziyaretçi
Şuan Online!
Filmin Yayınlanma Tarihi: 2015 
WWW
Şuan Online!
BroserBros Kurucu Admin
*******
Admin








 Sindirella



Sindirella, üvey annesi ve kız kardeşi tarafından dışlanan genç bir kızın bir yabancı ile karşılaştıktan sonra değişen yaşamının hikayesini anlatıyor. Ella’nın tüccar babası, annesinin trajik ölümü üzerine başka bir kadınla evlenir. Çok sevdiği babasına destek olmak için Ella yeni üvey annesi Tremaine’i ve üvey kız kardeşleri Anastasia ve Drizella’yı kabul eder. Fakat Ella'nın babası da aniden ölünce, genç kız bu zalim üvey anne ve kız kardeş ile baş başa kalacaktır. Kısa zaman içinde kendi evinde bu üç kadının hizmetçisi durumuna düşer. Umutsuzluğa kapışan genç kadının tek kurtuluşu, kentte düzenlenen ve tüm genç kızların katılacağı o balodur…
Klasik Cinderella hikayesi bu modern uyarlamasında Cinderallayı Lily James oynarken, kadroda kendisine Cate Blanchett (Tremaine), Helena Bonham Carter (Koruyucu Peri), ve Richard Madden (Prens) eşlik ediyor. Ölümcül Oyun, Jack Ryan: Gölge Ajan, Thor gibi filmleriyle hatırladığımız Kenneth Branagh’ın yönetmen koltuğunda oturduğu filmin senaryosunu ise Aline Brosh McKenna ve Chris Weitz kaleme alıyor. Görüntü yönetmenliğini Haris Zambarloukos’un üstlendiği filmin müzikleri ise Cesur, Maymunlar Cehennemi: Başlangıç, Thor, Macera Adası, Eragon, Ölüm Tohumları gibi filmlerinde müziklerine imza atan Patrick Doyle’a ait.

Sindirella (2015) (Cinderella) Filmi Imdb'den 151,000 kişi tarafından oylandı ve 6,9 puan aldı. Bu film için editör puanı 7,1 olarak belirlendi. İyi Seyirler!

Teknik Detaylar

Kod :
General
Unique ID                                : 293529657200825498476844659727935983494 (0xDCD3C1716B23110A4367F30BC9E3CF86)
Complete name                            : /root/Desktop/1/Sindirella.2015.1080p.BluRay.x264.TR.Filmbol.mkv
Format                                   : Matroska
Format version                           : Version 4 / Version 2
File size                                : 2.04 GiB
Duration                                 : 1h 45mn
Overall bit rate                         : 2 771 Kbps
Movie name                               : Sindirella (2015) - Filmbol.org
Encoded date                             : UTC 2020-02-16 10:29:07
Writing application                      : mkvmerge v35.0.0 ('All The Love In The World') 64-bit
Writing library                          : libebml v1.3.9 + libmatroska v1.5.2

Video
ID                                       : 1
Format                                   : AVC
Format/Info                              : Advanced Video Codec
Format profile                           : [email protected]
Format settings, CABAC                   : Yes
Format settings, ReFrames                : 4 frames
Codec ID                                 : V_MPEG4/ISO/AVC
Duration                                 : 1h 45mn
Bit rate                                 : 2 130 Kbps
Width                                    : 1 920 pixels
Height                                   : 808 pixels
Display aspect ratio                     : 2.40:1
Frame rate mode                          : Constant
Frame rate                               : 23.976 (24000/1001) fps
Original frame rate                      : 23.976 (23976/1000) fps
Color space                              : YUV
Chroma subsampling                       : 4:2:0
Bit depth                                : 8 bits
Scan type                                : Progressive
Bits/(Pixel*Frame)                       : 0.057
Stream size                              : 1.57 GiB (77%)
Title                                    : 1080P - Filmbol.org
Writing library                          : x264 core 123 r2189 35cf912
Encoding settings                        : cabac=1 / ref=4 / deblock=1:-1:-1 / analyse=0x3:0x133 / me=umh / subme=9 / psy=1 / psy_rd=1.00:0.15 / mixed_ref=1 / me_range=24 / chroma_me=1 / trellis=2 / 8x8dct=1 / cqm=0 / deadzone=21,11 / fast_pskip=0 / chroma_qp_offset=-3 / threads=48 / sliced_threads=0 / nr=0 / decimate=1 / interlaced=0 / bluray_compat=0 / constrained_intra=0 / bframes=3 / b_pyramid=2 / b_adapt=2 / b_bias=0 / direct=3 / weightb=1 / open_gop=0 / weightp=2 / keyint=250 / keyint_min=23 / scenecut=40 / intra_refresh=0 / rc_lookahead=60 / rc=2pass / mbtree=1 / bitrate=2130 / ratetol=1.0 / qcomp=0.60 / qpmin=0 / qpmax=69 / qpstep=4 / cplxblur=20.0 / qblur=0.5 / vbv_maxrate=31250 / vbv_bufsize=31250 / nal_hrd=none / ip_ratio=1.40 / aq=1:1.00
Default                                  : Yes
Forced                                   : No
Color range                              : Limited
Color primaries                          : BT.709
Matrix coefficients                      : BT.709

Audio
ID                                       : 2
Format                                   : AC-3
Format/Info                              : Audio Coding 3
Mode extension                           : CM (complete main)
Format settings, Endianness              : Big
Codec ID                                 : A_AC3
Duration                                 : 1h 45mn
Bit rate mode                            : Constant
Bit rate                                 : 640 Kbps
Channel(s)                               : 6 channels
Channel positions                        : Front: L C R, Side: L R, LFE
Sampling rate                            : 48.0 KHz
Frame rate                               : 31.250 fps (1536 spf)
Compression mode                         : Lossy
Stream size                              : 482 MiB (23%)
Title                                    : Türkçe - Filmbol.org
Default                                  : Yes
Forced                                   : No

Film Detayları


 Sindirella

 Sindirella

 Sindirella


Film Fragmanı


Film Detayları

Uptobox ile indir

1Fichier ile indir

1Fichier'den İndiremiyor musun? Tıklayın!


Mega linki şuan da gizli. Kullanıma açmak için konuya yorum yapın ve ardından sayfayı yenileyin.

Mega


MediaFire ile indir

Şuan Offine!
Şuan Offine!
Dralix Uzman Üye
**
Uzman Üye

  • Konular0
  • Mesajlar5
  • Rep puanı 0
Teşekkürler
Şuan Offine!
Şuan Offine!
gv gfr Yeni Üye
*
Üye

  • Konular0
  • Mesajlar2
  • Rep puanı 0
merhaba


Konu ile Alakalı Benzer Konular
Konular Yazar Yorumlar Okunma Son Yorum
Filmin Yayınlanma Tarihi: 2016
The Nice Guys: İyi Adamlar (2016) Türkçe Dublaj 1080P İndir BroserBros 4 1,316 4 saat önce
Son Yorum: ANDREMEDAN
Filmin Yayınlanma Tarihi: 2014
Madagaskar Penguenleri (Penguins of Madagascar) Türkçe Dublaj BLURAY 1080P İndir BroserBros 3 711 7 saat önce
Son Yorum: Omertrans505
Filmin Yayınlanma Tarihi: 2020
Her Zaman Şeytan (The Devil All the Time) - 2020 - TR+ORG - 1080P | tt7395114 TheSteeL 0 15 8 saat önce
Son Yorum: TheSteeL
Filmin Yayınlanma Tarihi: 2020
Baba Aranıyor (Se busca papá) - 2020 - TR+ORG - 1080P | tt12721188 TheSteeL 0 17 9 saat önce
Son Yorum: TheSteeL
Filmin Yayınlanma Tarihi: 2019
Beyaz Kentin Sessizliği (El silencio de la ciudad blanca) - 2019 - TR+ORG - 1080P | tt8393332 BroserBros 1 254 , Saat: 15:38
Son Yorum: BroserBros

Hızlı Menü: