Hoşgeldin, Ziyaretçi: Giriş Yap Üye Ol


Konuyu Oyla:
  • Derecelendirme: 0/5 - 0 oy
  • 1
  • 2
  • 3
  • 4
  • 5
Title: Şimdi Yandık! (Playing with Fire) Türkçe Dublaj BRRip XviD indir
Gösterim Stili
#1
Filmin Yayınlanma Tarihi: 2019 

vizyon tarihi


08 Kasım 2019

imdb puanı


4,9 / 7,000

süre


96 dakika

Editör Puanı


5,0 / 10

Video Format: Avi


Audio Video Interleave (.AVI)

Ses Kodek: MP3


MPEG-1 Audio Layer III (MP3)

sürüm


h263 | BRRip XviD

Boyutlar


1,17 GB



 Şimdi Yandık!



İtfayeciler bir yangından başarılı bir şekilde üç çocuğu kurtarmıştır ancak olay bu şekilde bitmez. Çocuklara bakacak kimse olmadığı için bu görev onlara kalır ve çocukları evlerine alırlar. Ancak çocuklar o kadar uslu değillerdir ve bu itfayecileri bir çok sorun çıkarırlar

Şimdi Yandık! (2019) (Playing with Fire) Filmi Imdb'den 7,000 kişi tarafından oylandı ve 4,9 puan aldı. Bu film için editör puanı 5,0 olarak belirlendi. İyi Seyirler!

Teknik Detaylar

Kod:
General
Complete name                            : /root/Desktop/3/Şimdi.Yandık.2019.BRRip.XViD.TR.Filmbol.avi
Format                                   : AVI
Format/Info                              : Audio Video Interleave
File size                                : 1.17 GiB
Duration                                 : 1h 35mn
Overall bit rate                         : 1 738 Kbps

Video
ID                                       : 0
Format                                   : MPEG-4 Visual
Format profile                           : Simple@L5
Format settings, BVOP                    : No
Format settings, QPel                    : No
Format settings, GMC                     : No warppoints
Format settings, Matrix                  : Default (H.263)
Codec ID                                 : XVID
Codec ID/Hint                            : XviD
Duration                                 : 1h 35mn
Bit rate                                 : 1 597 Kbps
Width                                    : 720 pixels
Height                                   : 400 pixels
Display aspect ratio                     : 16:9
Frame rate                               : 23.976 fps
Color space                              : YUV
Chroma subsampling                       : 4:2:0
Bit depth                                : 8 bits
Scan type                                : Progressive
Compression mode                         : Lossy
Bits/(Pixel*Frame)                       : 0.231
Stream size                              : 1.07 GiB (92%)
Writing library                          : Lavc58.35.100

Audio
ID                                       : 1
Format                                   : MPEG Audio
Format version                           : Version 1
Format profile                           : Layer 3
Mode                                     : Joint stereo
Mode extension                           : MS Stereo
Codec ID                                 : 55
Codec ID/Hint                            : MP3
Duration                                 : 1h 35mn
Bit rate mode                            : Constant
Bit rate                                 : 128 Kbps
Channel(s)                               : 2 channels
Sampling rate                            : 48.0 KHz
Compression mode                         : Lossy
Stream size                              : 87.9 MiB (7%)
Alignment                                : Aligned on interleaves
Interleave, duration                     : 24 ms (0.58 video frame)

Film Detayları


 Şimdi Yandık!

 Şimdi Yandık!

 Şimdi Yandık!


Film Fragmanı


Film Detayları


Uptobox ile indir

1Fichier ile indir

LetsUpload ile indir

Bunun için üzgünüz ancak, bu linke sadece premium üyeler erişebilir.

Filmbol Cloud

 
Cevapla
  


Konu ile Alakalı Benzer Konular
Konular Yazar Yorumlar Okunma Son Yorum
Filmin Yayınlanma Tarihi: 2019 Karakomik Filmler: 2 Arada (2019) Türkçe Dublaj BRRip XviD indir BroserBros 1 54 1 saat önce
Son Yorum: badboys755
Filmin Yayınlanma Tarihi: 2019 Karakomik Filmler: Kaçamak (2019) Türkçe Dublaj BRRip XviD indir BroserBros 1 105 1 saat önce
Son Yorum: badboys755
Filmin Yayınlanma Tarihi: 2019 Sesinde Aşk Var (2019) Yerli Film BRRip XviD İndir BroserBros 2 189 23-03-2020, Saat: 20:55
Son Yorum: nobleklan
Filmin Yayınlanma Tarihi: 2019 Mutsuzluğun Peşinde (Ode to Joy) Türkçe Dublaj BRRip XviD indir BroserBros 0 64 22-03-2020, Saat: 22:38
Son Yorum: BroserBros
Filmin Yayınlanma Tarihi: 2019 Büyükbabalar Yuvada (Grand-Daddy Day Care) Türkçe Dublaj BRRip XviD indir BroserBros 0 47 18-03-2020, Saat: 22:28
Son Yorum: BroserBros

Hızlı Menü:


Browsing: 1 Ziyaretçi