Hoşgeldin, Ziyaretçi: Giriş Yap Üye Ol


Konuyu Oyla:
  • Derecelendirme: 0/5 - 0 oy
  • 1
  • 2
  • 3
  • 4
  • 5
Title: Şimdi Yandık! (Playing with Fire) Türkçe Dublaj BLURAY 1080P indir
Gösterim Stili
#1
Filmin Yayınlanma Tarihi: 2019 

vizyon tarihi


08 Kasım 2019

imdb puanı


4,9 / 7,000

süre


96 dakika

Editör Puanı


5,0 / 10

Video Format: Mkv


Matroska (.MKV)

Ses Kodek: AC3


Audio Coding 3 (AC3)

sürüm


x264 | 1080P | BLURAY

Boyutlar


1,64 GB



 Şimdi Yandık!



İtfayeciler bir yangından başarılı bir şekilde üç çocuğu kurtarmıştır ancak olay bu şekilde bitmez. Çocuklara bakacak kimse olmadığı için bu görev onlara kalır ve çocukları evlerine alırlar. Ancak çocuklar o kadar uslu değillerdir ve bu itfayecileri bir çok sorun çıkarırlar

Şimdi Yandık! (2019) (Playing with Fire) Filmi Imdb'den 7,000 kişi tarafından oylandı ve 4,9 puan aldı. Bu film için editör puanı 5,0 olarak belirlendi. İyi Seyirler!

Teknik Detaylar

Kod:
General
Unique ID                                : 269668035859062843049171029293153807548 (0xCAE02CAE07FF6F63E731F80DC1A26CBC)
Complete name                            : /root/Desktop/3/Şimdi.Yandık.2019.1080p.BluRay.x264.TR.Filmbol.mkv
Format                                   : Matroska
Format version                           : Version 4 / Version 2
File size                                : 1.64 GiB
Duration                                 : 1h 35mn
Overall bit rate                         : 2 443 Kbps
Movie name                               : Şimdi Yandık (2019) - Filmbol.org
Encoded date                             : UTC 2020-03-26 14:47:42
Writing application                      : mkvmerge v8.8.0 ('Wind at my back') 64bit
Writing library                          : libebml v1.3.3 + libmatroska v1.4.4

Video
ID                                       : 1
Format                                   : AVC
Format/Info                              : Advanced Video Codec
Format profile                           : High@L4.1
Format settings, CABAC                   : Yes
Format settings, ReFrames                : 4 frames
Codec ID                                 : V_MPEG4/ISO/AVC
Duration                                 : 1h 35mn
Bit rate                                 : 2 250 Kbps
Width                                    : 1 920 pixels
Height                                   : 1 072 pixels
Display aspect ratio                     : 16:9
Frame rate mode                          : Constant
Frame rate                               : 23.976 (24000/1001) fps
Color space                              : YUV
Chroma subsampling                       : 4:2:0
Bit depth                                : 8 bits
Scan type                                : Progressive
Bits/(Pixel*Frame)                       : 0.046
Stream size                              : 1.51 GiB (92%)
Title                                    : 1080P - Filmbol.org
Writing library                          : x264 core 158
Encoding settings                        : cabac=1 / ref=4 / deblock=1:-1:-1 / analyse=0x3:0x133 / me=umh / subme=9 / psy=1 / psy_rd=1.00:0.15 / mixed_ref=1 / me_range=24 / chroma_me=1 / trellis=2 / 8x8dct=1 / cqm=0 / deadzone=21,11 / fast_pskip=0 / chroma_qp_offset=-3 / threads=12 / lookahead_threads=1 / sliced_threads=0 / nr=0 / decimate=1 / interlaced=0 / bluray_compat=0 / constrained_intra=0 / bframes=3 / b_pyramid=2 / b_adapt=2 / b_bias=0 / direct=3 / weightb=1 / open_gop=0 / weightp=2 / keyint=250 / keyint_min=23 / scenecut=40 / intra_refresh=0 / rc_lookahead=60 / rc=2pass / mbtree=1 / bitrate=2250 / ratetol=1.0 / qcomp=0.60 / qpmin=0 / qpmax=69 / qpstep=4 / cplxblur=20.0 / qblur=0.5 / vbv_maxrate=31250 / vbv_bufsize=31250 / nal_hrd=none / filler=0 / ip_ratio=1.40 / aq=1:1.00
Default                                  : Yes
Forced                                   : No

Audio
ID                                       : 2
Format                                   : AC-3
Format/Info                              : Audio Coding 3
Mode extension                           : CM (complete main)
Format settings, Endianness              : Big
Codec ID                                 : A_AC3
Duration                                 : 1h 35mn
Bit rate mode                            : Constant
Bit rate                                 : 192 Kbps
Channel(s)                               : 2 channels
Channel positions                        : Front: L R
Sampling rate                            : 48.0 KHz
Frame rate                               : 31.250 fps (1536 spf)
Compression mode                         : Lossy
Stream size                              : 132 MiB (8%)
Title                                    : Türkçe - Filmbol.org
Language                                 : Turkish
Default                                  : Yes
Forced                                   : Yes

Film Detayları


 Şimdi Yandık!

 Şimdi Yandık!

 Şimdi Yandık!


Film Fragmanı


Film Detayları

Uptobox ile indir

1Fichier ile indir

Bunun için üzgünüz ancak, bu linke sadece premium üyeler erişebilir.

Filmbol Cloud

 
Cevapla
  


Konu ile Alakalı Benzer Konular
Konular Yazar Yorumlar Okunma Son Yorum
Filmin Yayınlanma Tarihi: 2019 Mutsuzluğun Peşinde (Ode to Joy) Türkçe Dublaj BLURAY 1080P indir BroserBros 0 66 22-03-2020, Saat: 22:38
Son Yorum: BroserBros
Filmin Yayınlanma Tarihi: 2019 Karakomik Filmler: Kaçamak (2019) Türkçe Dublaj BLURAY 1080P indir BroserBros 0 120 21-03-2020, Saat: 22:52
Son Yorum: BroserBros
Filmin Yayınlanma Tarihi: 2019 Karakomik Filmler: 2 Arada (2019) Türkçe Dublaj BLURAY 1080P indir BroserBros 0 71 21-03-2020, Saat: 22:40
Son Yorum: BroserBros
Filmin Yayınlanma Tarihi: 2019 Büyükbabalar Yuvada (Grand-Daddy Day Care) Türkçe Dublaj BLURAY 1080P indir BroserBros 0 43 18-03-2020, Saat: 22:28
Son Yorum: BroserBros
Filmin Yayınlanma Tarihi: 2018 Guy (2018) Türkçe Dublaj BLURAY 1080P indir BroserBros 0 70 13-03-2020, Saat: 22:36
Son Yorum: BroserBros

Hızlı Menü:


Browsing: 1 Ziyaretçi