Filmbol Forum Film İndir 1080P v Shrek (Şrek) - 2001 - TR+ORG - 1080P
Moderatör Alımları Başladı! Başvuru yapmak için tıklayın.
Filmbol Premium'da %50'e varan indirim fırsatı!
Shrek (Şrek) - 2001 - TR+ORG - 1080P
BroserBros
Shrek (Şrek) - 2001 - TR+ORG - 1080P
0
134
  • Derecelendirme: 0/5 - 0 oy
  • 1
  • 2
  • 3
  • 4
  • 5
Konuyu Okuyanlar:1 Ziyaretçi
Şuan Offine!
Filmin Yayınlanma Tarihi: 2001 
Şuan Offine!
BroserBros Kurucu Admin
*******
Admin

Vizyon Tarihi


22 Haziran 2001

imdb puanı


7,8 / 600,000

süre


90 dakika

Editör Puanı


8,5 / 10

Video Format: Mkv


Matroska (.MKV)

Ses Kodek: AC3


Audio Coding 3 (AC3)

sürüm


x264 | 1080P | BluRay

Boyutlar


1,40 GB



 Shrek



Shrek, yalnız yaşamayı seven, aslında yalnız yaşamaya mahkum bir devdir. Bu yalnızlığını bozabilecek tek şey en az kendisi kadar çirkin, ürkütücü ve iri bir arkadaş bulabilmektir. Uzun zaman geçse de kendisine böyle bir arkadaş bulamaz. Günlerden bir gün ise bir kahin kralın kızı fioanın ancak aşkın gerçek öpücüğü ile yeniden uyanabileceğini ve bunu yapabilecek tek kişinin de Shrek olduğunu söylediğinde, imkansız olan bir durum meydana gelir ve güzeller güzeli Fioana ile Çirkinler çirkini Shrek yan yana gelir...

Shrek (2001) (Şrek) Filmi Imdb'den 600,000 kişi tarafından oylandı ve 7,8 puan aldı. Bu film için editör puanı 8,5 olarak belirlendi. İyi Seyirler!

Teknik Detaylar

Kod :
General
Unique ID                                : 218050040903401530231037900732031009316 (0xA40AE90A68986AF3EFA7058450EB8224)
Complete name                            : /root/Desktop/4/Shrek.2001.1080p.BluRay.x264.TR.ENG.Filmbol.mkv
Format                                  : Matroska
Format version                          : Version 4 / Version 2
File size                                : 1.40 GiB
Duration                                : 1h 30mn
Overall bit rate                        : 2 220 Kbps
Movie name                              : Shrek - 2001 | Filmbol.org
Encoded date                            : UTC 2020-05-19 12:07:18
Writing application                      : mkvmerge v8.8.0 ('Wind at my back') 64bit
Writing library                          : libebml v1.3.3 + libmatroska v1.4.4

Video
ID                                      : 1
Format                                  : AVC
Format/Info                              : Advanced Video Codec
Format profile                          : High@L5
Format settings, CABAC                  : Yes
Format settings, ReFrames                : 5 frames
Codec ID                                : V_MPEG4/ISO/AVC
Duration                                : 1h 30mn
Bit rate                                : 1 515 Kbps
Width                                    : 1 920 pixels
Height                                  : 1 080 pixels
Display aspect ratio                    : 16:9
Frame rate mode                          : Constant
Frame rate                              : 23.976 (24000/1001) fps
Color space                              : YUV
Chroma subsampling                      : 4:2:0
Bit depth                                : 8 bits
Scan type                                : Progressive
Bits/(Pixel*Frame)                      : 0.030
Stream size                              : 975 MiB (68%)
Title                                    : 1080P - Filmbol.org
Writing library                          : x264 core 120 r2164 da19765
Encoding settings                        : cabac=1 / ref=5 / deblock=1:-2:-1 / analyse=0x3:0x113 / me=umh / subme=8 / psy=1 / psy_rd=1.00:0.00 / mixed_ref=1 / me_range=16 / chroma_me=1 / trellis=1 / 8x8dct=1 / cqm=0 / deadzone=21,11 / fast_pskip=1 / chroma_qp_offset=-2 / threads=12 / sliced_threads=0 / nr=0 / decimate=1 / interlaced=0 / bluray_compat=0 / constrained_intra=0 / bframes=3 / b_pyramid=2 / b_adapt=2 / b_bias=0 / direct=3 / weightb=1 / open_gop=0 / weightp=2 / keyint=240 / keyint_min=23 / scenecut=40 / intra_refresh=0 / rc_lookahead=50 / rc=2pass / mbtree=1 / bitrate=1515 / ratetol=1.0 / qcomp=0.60 / qpmin=10 / qpmax=51 / qpstep=4 / cplxblur=20.0 / qblur=0.5 / ip_ratio=1.40 / aq=1:1.00
Default                                  : Yes
Forced                                  : No

Audio #1
ID                                      : 2
Format                                  : AC-3
Format/Info                              : Audio Coding 3
Mode extension                          : CM (complete main)
Format settings, Endianness              : Big
Codec ID                                : A_AC3
Duration                                : 1h 30mn
Bit rate mode                            : Constant
Bit rate                                : 640 Kbps
Channel(s)                              : 6 channels
Channel positions                        : Front: L C R, Side: L R, LFE
Sampling rate                            : 48.0 KHz
Frame rate                              : 31.250 fps (1536 spf)
Compression mode                        : Lossy
Stream size                              : 412 MiB (29%)
Title                                    : Türkçe - Filmbol.org
Language                                : Turkish
Default                                  : Yes
Forced                                  : Yes

Audio #2
ID                                      : 3
Format                                  : AAC
Format/Info                              : Advanced Audio Codec
Format profile                          : HE-AAC / LC
Codec ID                                : A_AAC
Duration                                : 1h 30mn
Bit rate                                : 64.0 Kbps
Channel(s)                              : 2 channels
Channel positions                        : Front: L R
Sampling rate                            : 48.0 KHz / 24.0 KHz
Frame rate                              : 23.438 fps (1024 spf)
Compression mode                        : Lossy
Stream size                              : 41.2 MiB (3%)
Title                                    : İngilizce - Filmbol.org
Default                                  : No
Forced                                  : No

Film Detayları


 Shrek

 Shrek

 Shrek


Film Fragmanı


Film Detayları

Uptobox ile indir

1Fichier ile indir

1Fichier'den İndiremiyor musun? Tıklayın!


Mega ile indir

Bunun için üzgünüz ancak, bu linke sadece premium üyeler erişebilir.

Filmbol Cloud



Konu ile Alakalı Benzer Konular
Konular Yazar Yorumlar Okunma Son Yorum
Filmin Yayınlanma Tarihi: 2018
Mogli: Orman Çocuğu (Mowgli) Türkçe Dublaj BLURAY 1080P İndir BroserBros 10 840 19-09-2020, Saat: 13:11
Son Yorum: Rocklion17
Filmin Yayınlanma Tarihi: 2020
The Hunt (Av) - 2020 - TR+ORG - 1080P BroserBros 0 262 18-09-2020, Saat: 19:28
Son Yorum: BroserBros
Filmin Yayınlanma Tarihi: 2018
Gözbebeğim (Pupille) - 2018 - TR+ORG - 1080P BroserBros 0 268 18-09-2020, Saat: 13:02
Son Yorum: BroserBros
Filmin Yayınlanma Tarihi: 2019
Umut Vadisi (Hope Gap) - 2019 - TR+ORG - 1080P BroserBros 0 265 18-09-2020, Saat: 12:52
Son Yorum: BroserBros
Filmin Yayınlanma Tarihi: 2020
Görünmez Adam (The Invisible Man) - 2020 - TR+ORG - 1080P BroserBros 1 143 16-09-2020, Saat: 20:10
Son Yorum: berkangungor

Hızlı Menü: