Filmbol Forum Film İndir BRRip XviD v Shrek 2 (Şrek 2) - 2004 - TR - BRRip XviD
Moderatör Alımları Başladı! Başvuru yapmak için tıklayın.
Filmbol Premium'da %50'e varan indirim fırsatı!
Shrek 2 (Şrek 2) - 2004 - TR - BRRip XviD
BroserBros
Shrek 2 (Şrek 2) - 2004 - TR - BRRip XviD
0
108
  • Derecelendirme: 0/5 - 0 oy
  • 1
  • 2
  • 3
  • 4
  • 5
Konuyu Okuyanlar:1 Ziyaretçi
Şuan Offine!
Filmin Yayınlanma Tarihi: 2004 
Şuan Offine!
BroserBros Kurucu Admin
*******
Admin

Vizyon Tarihi


27 Ağustos 2004

imdb puanı


7,2 / 410,000

süre


93 dakika

Editör Puanı


7,3 / 10

Video Format: Avi


Audio Video Interleave (.AVI)

Ses Kodek: MP3


MPEG-1 Audio Layer III (MP3)

sürüm


h263 | BRRip XviD

Boyutlar


0,69 GB



 Shrek 2



Şrek, güzeller güzeli Fioananın kalbini çalmayı başarmıştır. Bunu kötülüklere karşı yılmadan usanmadan verdiği savaş ile başarmıştır ve artık balayı zamanı gelmiştir. Güzel bir balayının ardından Şrek Fioananın anne ve babası tarafından davet edilmiştir. Şrek her ne kadar gitmek istemese de Fioana'nın ısrarı üzerine kabul eder ve saraya vardıklarında büyük bir sorun oluşur; Fioananın anne ve babası Şrek'in bir dev olduğu hakkında en ufak bir bilgiye bile sahip değildir!

Shrek 2 (2004) (Şrek 2) Filmi Imdb'den 410,000 kişi tarafından oylandı ve 7,2 puan aldı. Bu film için editör puanı 7,3 olarak belirlendi. İyi Seyirler!

Teknik Detaylar

Kod :
General
Complete name                            : /root/Desktop/5/Shrek.2.2004.BRRip.XviD.TR.Filmbol.avi
Format                                  : AVI
Format/Info                              : Audio Video Interleave
File size                                : 698 MiB
Duration                                : 1h 32mn
Overall bit rate                        : 1 056 Kbps
Writing application                      : VirtualDubMod 1.5.10.1 (build 2366/release)
Writing library                          : VirtualDubMod build 2366/release

Video
ID                                      : 0
Format                                  : MPEG-4 Visual
Format profile                          : Advanced Simple@L5
Format settings, BVOP                    : 2
Format settings, QPel                    : No
Format settings, GMC                    : No warppoints
Format settings, Matrix                  : Custom
Codec ID                                : XVID
Codec ID/Hint                            : XviD
Duration                                : 1h 32mn
Bit rate                                : 919 Kbps
Width                                    : 640 pixels
Height                                  : 352 pixels
Display aspect ratio                    : 16:9
Frame rate                              : 23.976 (24000/1001) fps
Color space                              : YUV
Chroma subsampling                      : 4:2:0
Bit depth                                : 8 bits
Scan type                                : Progressive
Compression mode                        : Lossy
Bits/(Pixel*Frame)                      : 0.170
Stream size                              : 607 MiB (87%)
Writing library                          : XviD 1.2.1 (UTC 2008-12-04)

Audio
ID                                      : 1
Format                                  : MPEG Audio
Format version                          : Version 1
Format profile                          : Layer 3
Mode                                    : Joint stereo
Mode extension                          : MS Stereo
Codec ID                                : 55
Codec ID/Hint                            : MP3
Duration                                : 1h 32mn
Bit rate mode                            : Constant
Bit rate                                : 128 Kbps
Channel(s)                              : 2 channels
Sampling rate                            : 48.0 KHz
Compression mode                        : Lossy
Stream size                              : 84.6 MiB (12%)
Alignment                                : Aligned on interleaves
Interleave, duration                    : 42 ms (1.00 video frame)
Interleave, preload duration            : 504 ms
Writing library                          : LAME3.98r
Encoding settings                        : -m j -V 4 -q 2 -lowpass 17 -b 128

Film Detayları


 Shrek 2

 Shrek 2

 Shrek 2


Film Fragmanı


Film Detayları


Uptobox ile indir

1Fichier ile indir

1Fichier'den İndiremiyor musun? Tıklayın!


Mega ile indir

Bunun için üzgünüz ancak, bu linke sadece premium üyeler erişebilir.

Filmbol Cloud



Konu ile Alakalı Benzer Konular
Konular Yazar Yorumlar Okunma Son Yorum
Filmin Yayınlanma Tarihi: 2014
Lucy (2014) Türkçe Dublaj BRRip XviD İndir BroserBros 1 255 19-09-2020, Saat: 00:56
Son Yorum: sectechno
Filmin Yayınlanma Tarihi: 2020
The Hunt (Av) - 2020 - TR - BRRip XviD BroserBros 0 223 18-09-2020, Saat: 19:28
Son Yorum: BroserBros
Filmin Yayınlanma Tarihi: 2018
Gözbebeğim (Pupille) - 2018 - TR - BRRip XviD BroserBros 0 223 18-09-2020, Saat: 13:02
Son Yorum: BroserBros
Filmin Yayınlanma Tarihi: 2019
Umut Vadisi (Hope Gap) - 2019 - TR - BRRip XviD BroserBros 0 222 18-09-2020, Saat: 12:50
Son Yorum: BroserBros
Filmin Yayınlanma Tarihi: 2019
Cep Herkülü: Naim Süleymanoğlu (Cep Herkülü: Naim Süleymanoğlu) - 2019 - TR - BRRip XviD BroserBros 0 111 15-09-2020, Saat: 21:51
Son Yorum: BroserBros

Hızlı Menü: