Filmbol Forum Film İndir 720P v X-Men: Kıyamet (X-Men: Apocalypse) - 2016 - TR+ORG - 720P | tt3385516
Mega linklerinin şikayet edilmemesi için global erişime kapatıp sadece yorum yapanlara açıyoruz. Bu linkleri gizleme işlemini mecburen yapıyoruz ve yorum yapmanızın siteye değil size faydası vardır. Teşekürler yazmayı çok görüp, Random/Spam mesajlar atarak Mega linklerini açmaya çalışan kullanıcılara önce süresiz ban, devam ederse IP ban atacağız.
Filmbol'da moderatör olmak ister misiniz? Bizimle iletişime geçmek için tıklayın!
X-Men: Kıyamet (X-Men: Apocalypse) - 2016 - TR+ORG - 720P | tt3385516
BroserBros
X-Men: Kıyamet (X-Men: Apocalypse) - 2016 - TR+ORG - 720P | tt3385516
11
4476
  • Derecelendirme: 0/5 - 0 oy
  • 1
  • 2
  • 3
  • 4
  • 5
Konuyu Okuyanlar:1 Ziyaretçi
Şuan Online!
Filmin Yayınlanma Tarihi: 2016 
WWW
Şuan Online!
BroserBros Kurucu Admin
*******
Admin



 X-Men: Kıyamet



Dünyanın ilk mutantı Apocalypse (oscar isaac) dünyada yeniden uyandığında dünya çok değişmiştir. Bu çok güçlü mutant dünyayı yok edip yeniden istediği gibi şekillendirmek isteyecektir. Ancak o diğer mutantları da kendisine köle yapmak istediğinden, mutantlar onu destekleyenler ve desteklemeyenler olarak ikiye bölünecektir.

X-Men: Kıyamet (2016) (X-Men: Apocalypse) | tt3385516 Filmi Imdb'den 400,000 kişi tarafından oylandı ve 6,9 puan aldı. Bu film için editör puanı %85 olarak belirlendi. İyi Seyirler!

Teknik Detaylar

Kod :
General
Unique ID                                : 237307916094161006487593347042234101891 (0xB287D798193298960455512ED8E07083)
Complete name                            : /home/BroserBros/Desktop/1/X-Men.Apocalypse.2016.720p.BluRay.x264.TR.ENG.Filmbol.mkv
Format                                   : Matroska
Format version                           : Version 4
File size                                : 1.50 GiB
Duration                                 : 2 h 23 min
Overall bit rate                         : 1 489 kb/s
Movie name                               : X-Men: Apocalypse - 2016 | Filmbol.org
Encoded date                             : UTC 2021-04-13 10:19:12
Writing application                      : mkvmerge v53.0.0 ('Fool's Gold') 64-bit
Writing library                          : libebml v1.4.1 + libmatroska v1.6.2

Video
ID                                       : 1
Format                                   : AVC
Format/Info                              : Advanced Video Codec
Format profile                           : [email protected]
Format settings                          : CABAC / 4 Ref Frames
Format settings, CABAC                   : Yes
Format settings, Reference frames        : 4 frames
Codec ID                                 : V_MPEG4/ISO/AVC
Duration                                 : 2 h 23 min
Bit rate                                 : 900 kb/s
Width                                    : 1 280 pixels
Height                                   : 534 pixels
Display aspect ratio                     : 2.40:1
Original display aspect ratio            : 2.40:1
Frame rate mode                          : Constant
Frame rate                               : 23.976 (24000/1001) FPS
Color space                              : YUV
Chroma subsampling                       : 4:2:0
Bit depth                                : 8 bits
Scan type                                : Progressive
Bits/(Pixel*Frame)                       : 0.055
Stream size                              : 927 MiB (60%)
Title                                    : 720P - Filmbol.org
Writing library                          : x264 core 148
Encoding settings                        : cabac=1 / ref=4 / deblock=1:-1:-1 / analyse=0x3:0x133 / me=umh / subme=9 / psy=1 / psy_rd=1.00:0.15 / mixed_ref=1 / me_range=24 / chroma_me=1 / trellis=2 / 8x8dct=1 / cqm=0 / deadzone=21,11 / fast_pskip=0 / chroma_qp_offset=-3 / threads=12 / lookahead_threads=1 / sliced_threads=0 / nr=0 / decimate=1 / interlaced=0 / bluray_compat=0 / constrained_intra=0 / bframes=3 / b_pyramid=2 / b_adapt=2 / b_bias=0 / direct=3 / weightb=1 / open_gop=0 / weightp=2 / keyint=250 / keyint_min=23 / scenecut=40 / intra_refresh=0 / rc_lookahead=60 / rc=2pass / mbtree=1 / bitrate=900 / ratetol=1.0 / qcomp=0.60 / qpmin=0 / qpmax=69 / qpstep=4 / cplxblur=20.0 / qblur=0.5 / vbv_maxrate=31250 / vbv_bufsize=31250 / nal_hrd=none / filler=0 / ip_ratio=1.40 / aq=1:1.00
Default                                  : Yes
Forced                                   : No

Audio #1
ID                                       : 2
Format                                   : AC-3
Format/Info                              : Audio Coding 3
Commercial name                          : Dolby Digital
Codec ID                                 : A_AC3
Duration                                 : 2 h 23 min
Bit rate mode                            : Constant
Bit rate                                 : 448 kb/s
Channel(s)                               : 6 channels
Channel layout                           : L R C LFE Ls Rs
Sampling rate                            : 48.0 kHz
Frame rate                               : 31.250 FPS (1536 SPF)
Compression mode                         : Lossy
Delay relative to video                  : -43 ms
Stream size                              : 461 MiB (30%)
Title                                    : Türkçe - Filmbol.org
Language                                 : Turkish
Service kind                             : Complete Main
Default                                  : Yes
Forced                                   : No

Audio #2
ID                                       : 3
Format                                   : AAC LC
Format/Info                              : Advanced Audio Codec Low Complexity
Codec ID                                 : A_AAC-2
Duration                                 : 2 h 23 min
Bit rate                                 : 132 kb/s
Channel(s)                               : 2 channels
Channel layout                           : L R
Sampling rate                            : 48.0 kHz
Frame rate                               : 46.875 FPS (1024 SPF)
Compression mode                         : Lossy
Delay relative to video                  : -43 ms
Stream size                              : 136 MiB (9%)
Title                                    : Orjinal Dil - Filmbol.org
Language                                 : English
Default                                  : No
Forced                                   : No

Text
ID                                       : 4
Format                                   : PGS
Muxing mode                              : zlib
Codec ID                                 : S_HDMV/PGS
Codec ID/Info                            : Picture based subtitle format used on BDs/HD-DVDs
Duration                                 : 2 h 22 min
Bit rate                                 : 22.9 kb/s
Count of elements                        : 2934
Stream size                              : 23.4 MiB (2%)
Title                                    : Türkçe - Filmbol.org
Language                                 : Turkish
Default                                  : No
Forced                                   : No

Film Detayları


 X-Men: Kıyamet

 X-Men: Kıyamet

 X-Men: Kıyamet


Film Fragmanı


Film Detayları

Uptobox ile indir

1Fichier ile indir

1Fichier'den İndiremiyor musun? Tıklayın!


Mega linki şuan da gizli. Kullanıma açmak için konuya yorum yapın ve ardından sayfayı yenileyin.

Mega


Bunun için üzgünüz ancak, bu linke sadece premium üyeler erişebilir.

Filmbol Cloud





Şuan Offine!
Şuan Offine!
isayhan Süper Üye
***
Super Üye

  • Konular0
  • Mesajlar28
  • Rep puanı 0
paylaşım için teşekkürler
Şuan Online!
Şuan Online!
BroserBros Kurucu Admin
*******
Admin

09.12.2019 Güncelleme Notu:

Linkler yenilendi. Kırık linkler kaldırıldı ve Genel Konu Düzenlemesi Yapıldı
Şuan Offine!
Şuan Offine!
cimbomlu1905 Yeni Üye
*
Üye

  • Konular0
  • Mesajlar1
  • Rep puanı 0
paylaşım için teşekkürler. Smile
Şuan Offine!
Şuan Offine!
zxczxc Yeni Üye
*
Üye

  • Konular0
  • Mesajlar2
  • Rep puanı 0
bi sitede de tılamamla hemen inse
Şuan Offine!
Şuan Offine!
Ahmet34 Süper Üye
***
Super Üye

  • Konular0
  • Mesajlar32
  • Rep puanı 0
efsane
Şuan Offine!
Şuan Offine!
BlackSpace Uzman Üye
**
Uzman Üye

  • Konular0
  • Mesajlar9
  • Rep puanı 0
Teşekkürler
Şuan Offine!
Şuan Offine!
thor Süper Üye
***
Super Üye

  • Konular0
  • Mesajlar34
  • Rep puanı 0
Norm Ender
Şuan Offine!
Şuan Offine!
Koçeren Uzman Üye
**
Uzman Üye

  • Konular0
  • Mesajlar11
  • Rep puanı 0
güzel
Şuan Offine!
Şuan Offine!
Ziko Yeni Üye
*
Üye

  • Konular0
  • Mesajlar1
  • Rep puanı 0
Admin merhabalar bu filmin rar şifresini nasil elde ede bilirim filmi yukledim amma şifre istiyor


Konu ile Alakalı Benzer Konular
Konular Yazar Yorumlar Okunma Son Yorum
Filmin Yayınlanma Tarihi: 2017
Örümcek-Adam: Eve Dönüş (Spider-Man: Homecoming) - 2017 - TR+ORG - 720P | tt2250912 BroserBros 11 1,415 34 dakika önce
Son Yorum: denizyesilova00
Filmin Yayınlanma Tarihi: 2015
Karınca Adam (Ant-Man) - 2015 - TR+ORG - 720P | tt0478970 BroserBros 4 1,929 39 dakika önce
Son Yorum: denizyesilova00
Filmin Yayınlanma Tarihi: 2016
Kaptan Amerika: Kahramanların Savaşı (Captain America: Civil War) - 2016 - TR+ORG - 720P | tt3498820 BroserBros 5 5,327 40 dakika önce
Son Yorum: denizyesilova00
Filmin Yayınlanma Tarihi: 2015
Yenilmezler: Ultron Çağı (Avengers: Age of Ultron) - 2015 - TR+ORG - 720P | tt2395427 BroserBros 8 5,989 2 saat önce
Son Yorum: denizyesilova00
Filmin Yayınlanma Tarihi: 2017
Galaksinin Koruyucuları 2 (Guardians of the Galaxy Vol. 2) - 2017 - TR+ORG - 720P | tt3896198 BroserBros 3 453 2 saat önce
Son Yorum: denizyesilova00

Hızlı Menü: