Filmbol Forum Film İndir 1080P v Kaptan Amerika: Kahramanların Savaşı (Captain America: Civil War) - 2016 - TR+ORG - 1080P | tt3498820
Mega linklerinin şikayet edilmemesi için global erişime kapatıp sadece yorum yapanlara açıyoruz. Bu linkleri gizleme işlemini mecburen yapıyoruz ve yorum yapmanızın siteye değil size faydası vardır. Teşekürler yazmayı çok görüp, Random/Spam mesajlar atarak Mega linklerini açmaya çalışan kullanıcılara önce süresiz ban, devam ederse IP ban atacağız.
Filmbol'da moderatör olmak ister misiniz? Bizimle iletişime geçmek için tıklayın!
Kaptan Amerika: Kahramanların Savaşı (Captain America: Civil War) - 2016 - TR+ORG - 1080P | tt3498820
BroserBros
Kaptan Amerika: Kahramanların Savaşı (Captain America: Civil War) - 2016 - TR+ORG - 1080P | tt3498820
9
4845
  • Derecelendirme: 5/5 - 1 oy
  • 1
  • 2
  • 3
  • 4
  • 5
Konuyu Okuyanlar:1 Ziyaretçi
Şuan Online!
Filmin Yayınlanma Tarihi: 2016 
WWW
Şuan Online!
BroserBros Kurucu Admin
*******
Admin



 Kaptan Amerika: Kahramanların Savaşı



Süper kahramanların dünya için ne kadar iyi şeyler yaptığını herkes iyi biliyor. Ancak birde buradan bakın; Kahramanlar olmadan önce uzaylılar yoktu, savaş yoktu, kötülükler yoktu. Devlet ve dünya yaptıklarının yanında bunu da görmeye başladı ve süper kahramanlara sadece bir seçenek sundu; süper kahramanlar devlete bağlı olacaktı. Bu siyasi müdahale, Iron Man ve Captain Amerika arasında büyük bir çatlağa neden oldu.

Kaptan Amerika: Kahramanların Savaşı (2016) (Captain America: Civil War) | tt3498820 Filmi Imdb'den 680,000 kişi tarafından oylandı ve 7,8 puan aldı. Bu film için editör puanı %85 olarak belirlendi. İyi Seyirler!

Teknik Detaylar

Kod :
General
Unique ID                                : 152383682998873864447521340458161256977 (0x72A407A1C84EDF55B801E7320C59BA11)
Complete name                            : /home/BroserBros/Desktop/3/Kaptan.Amerika.Kahramanların.Savaşı.2016.1080p.BluRay.x264.TR.ENG.Filmbol.mkv
Format                                   : Matroska
Format version                           : Version 4
File size                                : 2.64 GiB
Duration                                 : 2 h 27 min
Overall bit rate                         : 2 555 kb/s
Movie name                               : Kaptan Amerika: İç Savaş - Captain America: Ciwil War - 2016 | Filmbol.org
Encoded date                             : UTC 2021-03-09 11:05:28
Writing application                      : mkvmerge v53.0.0 ('Fool's Gold') 64-bit
Writing library                          : libebml v1.4.1 + libmatroska v1.6.2

Video
ID                                       : 1
Format                                   : AVC
Format/Info                              : Advanced Video Codec
Format profile                           : [email protected]
Format settings                          : CABAC / 4 Ref Frames
Format settings, CABAC                   : Yes
Format settings, Reference frames        : 4 frames
Codec ID                                 : V_MPEG4/ISO/AVC
Duration                                 : 2 h 27 min
Bit rate                                 : 2 050 kb/s
Width                                    : 1 920 pixels
Height                                   : 800 pixels
Display aspect ratio                     : 2.40:1
Frame rate mode                          : Constant
Frame rate                               : 23.976 (24000/1001) FPS
Color space                              : YUV
Chroma subsampling                       : 4:2:0
Bit depth                                : 8 bits
Scan type                                : Progressive
Bits/(Pixel*Frame)                       : 0.056
Stream size                              : 2.11 GiB (80%)
Title                                    : 1080P - Filmbol.org
Writing library                          : x264 core 148
Encoding settings                        : cabac=1 / ref=4 / deblock=1:-1:-1 / analyse=0x3:0x133 / me=umh / subme=9 / psy=1 / psy_rd=1.00:0.15 / mixed_ref=1 / me_range=24 / chroma_me=1 / trellis=2 / 8x8dct=1 / cqm=0 / deadzone=21,11 / fast_pskip=0 / chroma_qp_offset=-3 / threads=12 / lookahead_threads=1 / sliced_threads=0 / nr=0 / decimate=1 / interlaced=0 / bluray_compat=0 / constrained_intra=0 / bframes=3 / b_pyramid=2 / b_adapt=2 / b_bias=0 / direct=3 / weightb=1 / open_gop=0 / weightp=2 / keyint=250 / keyint_min=23 / scenecut=40 / intra_refresh=0 / rc_lookahead=60 / rc=2pass / mbtree=1 / bitrate=2050 / ratetol=1.0 / qcomp=0.60 / qpmin=0 / qpmax=69 / qpstep=4 / cplxblur=20.0 / qblur=0.5 / vbv_maxrate=31250 / vbv_bufsize=31250 / nal_hrd=none / filler=0 / ip_ratio=1.40 / aq=1:1.00
Default                                  : Yes
Forced                                   : No

Audio #1
ID                                       : 2
Format                                   : AAC LC
Format/Info                              : Advanced Audio Codec Low Complexity
Codec ID                                 : A_AAC-2
Duration                                 : 2 h 27 min
Bit rate                                 : 119 kb/s
Channel(s)                               : 2 channels
Channel layout                           : L R
Sampling rate                            : 48.0 kHz
Frame rate                               : 46.875 FPS (1024 SPF)
Compression mode                         : Lossy
Stream size                              : 126 MiB (5%)
Title                                    : Orjinal Dil - Filmbol.org
Language                                 : war
Default                                  : Yes
Forced                                   : No

Audio #2
ID                                       : 3
Format                                   : AC-3
Format/Info                              : Audio Coding 3
Commercial name                          : Dolby Digital
Codec ID                                 : A_AC3
Duration                                 : 2 h 27 min
Bit rate mode                            : Constant
Bit rate                                 : 384 kb/s
Channel(s)                               : 6 channels
Channel layout                           : L R C LFE Ls Rs
Sampling rate                            : 48.0 kHz
Frame rate                               : 31.250 FPS (1536 SPF)
Compression mode                         : Lossy
Stream size                              : 406 MiB (15%)
Title                                    : Türkçe - Filmbol.org
Language                                 : Turkish
Service kind                             : Complete Main
Default                                  : No
Forced                                   : No

Text #1
ID                                       : 4
Format                                   : UTF-8
Codec ID                                 : S_TEXT/UTF8
Codec ID/Info                            : UTF-8 Plain Text
Duration                                 : 2 h 26 min
Bit rate                                 : 1 b/s
Count of elements                        : 63
Stream size                              : 1.83 KiB (0%)
Title                                    : FORCED - Filmbol.org
Language                                 : Turkish
Default                                  : Yes
Forced                                   : No

Text #2
ID                                       : 5
Format                                   : UTF-8
Codec ID                                 : S_TEXT/UTF8
Codec ID/Info                            : UTF-8 Plain Text
Duration                                 : 2 h 26 min
Bit rate                                 : 53 b/s
Count of elements                        : 1441
Stream size                              : 57.9 KiB (0%)
Title                                    : Türkçe Altyazı - Filmbol.org
Language                                 : Turkish
Default                                  : No
Forced                                   : No

Film Detayları


 Kaptan Amerika: Kahramanların Savaşı

 Kaptan Amerika: Kahramanların Savaşı

 Kaptan Amerika: Kahramanların Savaşı


Film Fragmanı


Film Detayları

Uptobox ile indir

1Fichier ile indir

1Fichier'den İndiremiyor musun? Tıklayın!


Mega linki şuan da gizli. Kullanıma açmak için konuya yorum yapın ve ardından sayfayı yenileyin.

Mega


Bunun için üzgünüz ancak, bu linke sadece premium üyeler erişebilir.

Filmbol Cloud





Şuan Offine!
Şuan Offine!
Hellenger28 Uzman Üye
**
Uzman Üye

  • Konular0
  • Mesajlar15
  • Rep puanı 0
Filmi indirdim mega uzerinden rar dosyasindan cikardim ama dosya hatasi verdi acmadi
Şuan Offine!
Şuan Offine!
emircan Süper Üye
***
Super Üye

  • Konular0
  • Mesajlar18
  • Rep puanı 0
süper
ℱİℒİBOL
Şuan Offine!
Şuan Offine!
gazikemal Uzman Üye
**
Uzman Üye

  • Konular0
  • Mesajlar15
  • Rep puanı 0
Teşekkürler
Şuan Offine!
Şuan Offine!
erdoganozer1 Yeni Üye
*
Üye

  • Konular0
  • Mesajlar4
  • Rep puanı 0
Çok iyi
Şuan Offine!
Şuan Offine!
kubikanber Uzman Üye
**
Uzman Üye

  • Konular0
  • Mesajlar21
  • Rep puanı 0
Smile Wink Cool
Şuan Offine!
Şuan Offine!
arizona17 Uzman Üye
**
Uzman Üye

  • Konular0
  • Mesajlar19
  • Rep puanı 0
super
Şuan Online!
Şuan Online!
BroserBros Kurucu Admin
*******
Admin

11.03.2021 Yönetici Notu:

Kırık linkler kontrol edildi, kaldırıldı ve yenilendi. Tüm linkler tamamen çalışır durumda.
Şuan Offine!
Şuan Offine!
cemsav97 Süper Üye
***
Super Üye

  • Konular0
  • Mesajlar67
  • Rep puanı 2
teşekkürler
Şuan Offine!
Şuan Offine!
zinqedit Uzman Üye
**
Uzman Üye

  • Konular0
  • Mesajlar21
  • Rep puanı 0
harika

harika


Hızlı Menü: