Filmbol Forum Film İndir BRRip XviD v Bir Ulusun Doğuşu (The Birth of a Nation) Türkçe Dublaj Brrip-Xvid İndir
Mega linklerinin şikayet edilmemesi için global erişime kapatıp sadece yorum yapanlara açıyoruz. Bu linkleri gizleme işlemini mecburen yapıyoruz ve yorum yapmanızın siteye değil size faydası vardır. Teşekürler yazmayı çok görüp, Random/Spam mesajlar atarak Mega linklerini açmaya çalışan kullanıcılara önce süresiz ban, devam ederse IP ban atacağız.
Filmbol'da moderatör olmak ister misiniz? Bizimle iletişime geçmek için tıklayın!
Bir Ulusun Doğuşu (The Birth of a Nation) Türkçe Dublaj Brrip-Xvid İndir
BroserBros
Bir Ulusun Doğuşu (The Birth of a Nation) Türkçe Dublaj Brrip-Xvid İndir
2
1453
  • Derecelendirme: 0/5 - 0 oy
  • 1
  • 2
  • 3
  • 4
  • 5
Konuyu Okuyanlar:1 Ziyaretçi
Şuan Online!
Filmin Yayınlanma Tarihi: 2016 
WWW
Şuan Online!
BroserBros Kurucu Admin
*******
Admin





rarsifresi


filmbol.org




Bir Ulusun Dogusu



Teknik Detaylar

Kod :
General
Format                                   : AVI
Format/Info                              : Audio Video Interleave
File size                                : 1.08 GiB
Duration                                 : 1h 59mn
Overall bit rate                         : 1 289 Kbps

Video
ID                                       : 0
Format                                   : MPEG-4 Visual
Format profile                           : Advanced [email protected]
Format settings, BVOP                    : 2
Format settings, QPel                    : No
Format settings, GMC                     : No warppoints
Format settings, Matrix                  : Default (H.263)
Muxing mode                              : Packed bitstream
Codec ID                                 : XVID
Codec ID/Hint                            : XviD
Duration                                 : 1h 59mn
Bit rate                                 : 1 152 Kbps
Width                                    : 720 pixels
Height                                   : 304 pixels
Display aspect ratio                     : 2.35:1
Frame rate                               : 23.976 fps
Color space                              : YUV
Chroma subsampling                       : 4:2:0
Bit depth                                : 8 bits
Scan type                                : Progressive
Compression mode                         : Lossy
Bits/(Pixel*Frame)                       : 0.219
Stream size                              : 987 MiB (89%)
Writing library                          : XviD 66

Audio
ID                                       : 1
Format                                   : MPEG Audio
Format version                           : Version 1
Format profile                           : Layer 3
Mode                                     : Joint stereo
Mode extension                           : MS Stereo
Codec ID                                 : 55
Codec ID/Hint                            : MP3
Duration                                 : 1h 59mn
Source duration                          : 1h 59mn
Bit rate mode                            : Constant
Bit rate                                 : 128 Kbps
Channel(s)                               : 2 channels
Sampling rate                            : 48.0 KHz
Compression mode                         : Lossy
Stream size                              : 110 MiB (10%)
Alignment                                : Aligned on interleaves
Interleave, duration                     : 42 ms (1.00 video frame)
Writing library                          : LAME3.99.5


Film Detayları


Bir Ulusun Dogusu

Bir Ulusun Dogusu

Bir Ulusun Dogusu



Film Fragmanı


Film Detayları

Brrip İndir



Mega linki şuan da gizli. Kullanıma açmak için konuya yorum yapın ve ardından sayfayı yenileyin.

Mega


f4s9

MediaFire ile indir

Şuan Online!
Şuan Online!
BroserBros Kurucu Admin
*******
Admin

13.09.2019 Güncellemesi;

Tüm linkler yenilendi, Alternatif 6 link (Yorum yaptıktan sonra açılan dahil) eklendi.
Şuan Offine!
Şuan Offine!
Megalodon Uzman Üye
**
Uzman Üye

  • Konular0
  • Mesajlar14
  • Rep puanı 0
Kaç link var


Hızlı Menü: