Filmbol Forum Film İndir UHD - ULTRA HD - 4K v Arınma Gecesi: Sonsuza Dek (The Forever Purge) - 2021 - Türkçe Altyazı! - UHD (4K) - 10Bit-x265 | tt10327252
Bildirimi Kapat
Server kaynaklı problemden dolayı ciddi bir sorun yaşadık. Şuanda forum ve portal aktif halde ancak bazı problemler hala devam ediyor. Problem gördüğünüz yerleri bize bildirmeniz çok önemli. Teşekkürler.

Bildirimi Kapat
Merhaba , site giderlerini bir nebze olsun karşılamak adına link kısaltma servisleri kullanmaya başladık. İndirme linkleri sizi ouo.io adresinde yönlendirecek, 3 saniye geçtikten sonra Get Link butonuna tıklayarak linke ulaşacaksınız. Premium üyeler bu durumdan etkilenmeyecektir.


Premium Üyelik Al

Arınma Gecesi: Sonsuza Dek (The Forever Purge) - 2021 - Türkçe Altyazı! - UHD (4K) - 10Bit-x265 | tt10327252
BroserBros
Arınma Gecesi: Sonsuza Dek (The Forever Purge) - 2021 - Türkçe Altyazı! - UHD (4K) - 10Bit-x265 | tt10327252
0
23
  • Derecelendirme: 0/5 - 0 oy
  • 1
  • 2
  • 3
  • 4
  • 5
Konuyu Okuyanlar:2 Ziyaretçi
Şuan Online!
Filmin Yayınlanma Tarihi: 2021 
Şuan Online!
BroserBros Kurucu Admin
*******
Admin


 Arınma Gecesi: Sonsuza Dek



Arınma Gecesi: Sonsuza Dek, Arınma Gecesi'nin hiç sona ermemesi gerektiğine karar verilmesiyle yaşananları konu ediyor. Kanunsuz bir topluluk, tek gecelik anarşi ve cinayetle artık yetinmek istemez. Yeraltı hareketinin üyeleri bu nedenle hiç bitmeyecek olan bir katliam ile ABD'yı ele geçirmeye karar verir. Artık hiçkimse güvende değildir. Teksas'da yaşamakta olan Adele ve kocası Juan da bu dehşetin kurbanları olur. Juan, zengin bir aile olan Tucker Ailesi’nin çiftliğinde çalışmaktadır. Arınma Gecesi'nin ertesi sabahında maskeli katillerden oluşan çete, Tucker Ailesi'ne saldırır. Bu kaos ortamında iki aile, katillere karşı bir araya gelip direnmek mecburiyetinde kalır.

Arınma Gecesi: Sonsuza Dek (2021) (The Forever Purge) | tt10327252 Filmi Imdb'den 21,000 kişi tarafından oylandı ve 5,4 puan aldı. Bu film için editör puanı %77 olarak belirlendi. İyi Seyirler!

Teknik Detaylar

Kod :
General
Unique ID                                : 134510580432858907689215444756485374610 (0x6531CBA3DF83879B5CFAB1A8B20C0292)
Complete name                            : C:\Users\Administrator\Desktop\3\Arınma.Gecesi.Sonsuza.Dek.2021.2160p.4K.BluRay.x265.10Bit.HDR.HEVC.Türkçe.Altyazı.Filmbol.mkv
Format                                   : Matroska
Format version                           : Version 4
File size                                : 17.0 GiB
Duration                                 : 1 h 43 min
Overall bit rate                         : 23.5 Mb/s
Movie name                               : Arınma Gecesi: Sonsuza Dek - The Forever Purge - 2021 | Filmbol.org
Encoded date                             : UTC 2021-09-26 09:52:37
Writing application                      : mkvmerge v61.0.0 ('So') 64-bit
Writing library                          : libebml v1.4.2 + libmatroska v1.6.4

Video
ID                                       : 1
Format                                   : HEVC
Format/Info                              : High Efficiency Video Coding
Format profile                           : Main [email protected]@High
HDR format                               : SMPTE ST 2086, HDR10 compatible
Codec ID                                 : V_MPEGH/ISO/HEVC
Duration                                 : 1 h 43 min
Bit rate                                 : 23.1 Mb/s
Width                                    : 3 840 pixels
Height                                   : 2 078 pixels
Display aspect ratio                     : 1.85:1
Frame rate mode                          : Constant
Frame rate                               : 23.976 FPS
Color space                              : YUV
Chroma subsampling                       : 4:2:0 (Type 2)
Bit depth                                : 10 bits
Bits/(Pixel*Frame)                       : 0.121
Stream size                              : 16.7 GiB (98%)
Title                                    : 4K - Filmbol.org
Default                                  : Yes
Forced                                   : No
Color range                              : Limited
Color primaries                          : BT.2020
Transfer characteristics                 : PQ
Matrix coefficients                      : BT.2020 non-constant
Mastering display color primaries        : Display P3
Mastering display luminance              : min: 0.0050 cd/m2, max: 1000 cd/m2
Maximum Content Light Level              : 1049 cd/m2
Maximum Frame-Average Light Level        : 500 cd/m2

Audio
ID                                       : 2
Format                                   : AC-3
Format/Info                              : Audio Coding 3
Commercial name                          : Dolby Digital
Codec ID                                 : A_AC3
Duration                                 : 1 h 43 min
Bit rate mode                            : Constant
Bit rate                                 : 384 kb/s
Channel(s)                               : 6 channels
Channel layout                           : L R C LFE Ls Rs
Sampling rate                            : 48.0 kHz
Frame rate                               : 31.250 FPS (1536 SPF)
Compression mode                         : Lossy
Stream size                              : 284 MiB (2%)
Title                                    : Orijinal Dil - Filmbol.org
Language                                 : English
Service kind                             : Complete Main
Default                                  : Yes
Forced                                   : No

Text #1
ID                                       : 3
Format                                   : UTF-8
Codec ID                                 : S_TEXT/UTF8
Codec ID/Info                            : UTF-8 Plain Text
Duration                                 : 1 h 34 min
Bit rate                                 : 54 b/s
Count of elements                        : 1260
Stream size                              : 38.2 KiB (0%)
Title                                    : Türkçe - Filmbol.org
Language                                 : Turkish
Default                                  : Yes
Forced                                   : Yes

Text #2
ID                                       : 4
Format                                   : UTF-8
Codec ID                                 : S_TEXT/UTF8
Codec ID/Info                            : UTF-8 Plain Text
Duration                                 : 1 h 43 min
Bit rate                                 : 64 b/s
Count of elements                        : 1770
Stream size                              : 48.7 KiB (0%)
Title                                    : Orijinal Dil - Filmbol.org
Language                                 : English
Default                                  : No
Forced                                   : No

Menu
00:00:00.000                             : Scene 1
00:04:59.966                             : Scene 2
00:11:22.766                             : Scene 3
00:18:09.464                             : Scene 4
00:23:43.173                             : Scene 5
00:29:00.407                             : Scene 6
00:36:27.604                             : Scene 7
00:42:38.183                             : Scene 8
00:45:31.147                             : Scene 9
00:52:23.852                             : Scene 10
01:00:30.588                             : Scene 11
01:05:46.321                             : Scene 12
01:12:46.783                             : Scene 13
01:18:10.023                             : Scene 14
01:25:18.660                             : Scene 15
01:32:07.902                             : Scene 16

Film Detayları


 Arınma Gecesi: Sonsuza Dek

 Arınma Gecesi: Sonsuza Dek

 Arınma Gecesi: Sonsuza Dek


Film Fragmanı


Film Detayları



Zip Şifresi: filmbol.org Aşağıdaki butona tıklayarak kopyalabilirsiniz.

Film Türkçe Altyazılıdır (Forced Değil). Altyazı dosyası Eklidir. İyi Seyirler...



Filmbol Cloud

Bunun için üzgünüz ancak, bu linke sadece premium üyeler erişebilir.




WWW


Hızlı Menü: