Filmbol Forum Film İndir 720P v Arınma Gecesi: Sonsuza Dek (The Forever Purge) - 2021 - Türkçe Altyazı! - 720P | tt10327252
Bildirimi Kapat
Server kaynaklı problemden dolayı ciddi bir sorun yaşadık. Şuanda forum ve portal aktif halde ancak bazı problemler hala devam ediyor. Problem gördüğünüz yerleri bize bildirmeniz çok önemli. Teşekkürler.

Bildirimi Kapat
Merhaba , site giderlerini bir nebze olsun karşılamak adına link kısaltma servisleri kullanmaya başladık. İndirme linkleri sizi ouo.io adresinde yönlendirecek, 3 saniye geçtikten sonra Get Link butonuna tıklayarak linke ulaşacaksınız. Premium üyeler bu durumdan etkilenmeyecektir.


Premium Üyelik Al

Arınma Gecesi: Sonsuza Dek (The Forever Purge) - 2021 - Türkçe Altyazı! - 720P | tt10327252
BroserBros
Arınma Gecesi: Sonsuza Dek (The Forever Purge) - 2021 - Türkçe Altyazı! - 720P | tt10327252
2
161
  • Derecelendirme: 0/5 - 0 oy
  • 1
  • 2
  • 3
  • 4
  • 5
Konuyu Okuyanlar:4 Ziyaretçi
Şuan Online!
Filmin Yayınlanma Tarihi: 2021 
Şuan Online!
BroserBros Kurucu Admin
*******
Admin


 Arınma Gecesi: Sonsuza Dek



Arınma Gecesi: Sonsuza Dek, Arınma Gecesi'nin hiç sona ermemesi gerektiğine karar verilmesiyle yaşananları konu ediyor. Kanunsuz bir topluluk, tek gecelik anarşi ve cinayetle artık yetinmek istemez. Yeraltı hareketinin üyeleri bu nedenle hiç bitmeyecek olan bir katliam ile ABD'yı ele geçirmeye karar verir. Artık hiçkimse güvende değildir. Teksas'da yaşamakta olan Adele ve kocası Juan da bu dehşetin kurbanları olur. Juan, zengin bir aile olan Tucker Ailesi’nin çiftliğinde çalışmaktadır. Arınma Gecesi'nin ertesi sabahında maskeli katillerden oluşan çete, Tucker Ailesi'ne saldırır. Bu kaos ortamında iki aile, katillere karşı bir araya gelip direnmek mecburiyetinde kalır.

Arınma Gecesi: Sonsuza Dek (2021) (The Forever Purge) | tt10327252 Filmi Imdb'den 21,000 kişi tarafından oylandı ve 5,4 puan aldı. Bu film için editör puanı %77 olarak belirlendi. İyi Seyirler!

Teknik Detaylar

Kod :
General
Unique ID                                : 229569618262024975841809923689390079734 (0xACB5800DF98A8C4F4707E4BEBC28FEF6)
Complete name                            : C:\Users\Administrator\Desktop\3\Arınma.Gecesi.Sonsuza.Dek.2021.720p.BluRay.x264.Türkçe.Altyazı.Filmbol.mkv
Format                                   : Matroska
Format version                           : Version 4
File size                                : 948 MiB
Duration                                 : 1 h 43 min
Overall bit rate                         : 1 281 kb/s
Movie name                               : Arınma Gecesi: Sonsuza Dek - The Forever Purge - 2021 | Filmbol.org
Encoded date                             : UTC 2021-09-26 09:42:13
Writing application                      : mkvmerge v61.0.0 ('So') 64-bit
Writing library                          : libebml v1.4.2 + libmatroska v1.6.4

Video
ID                                       : 1
Format                                   : AVC
Format/Info                              : Advanced Video Codec
Format profile                           : [email protected]
Format settings                          : CABAC / 4 Ref Frames
Format settings, CABAC                   : Yes
Format settings, Reference frames        : 4 frames
Codec ID                                 : V_MPEG4/ISO/AVC
Duration                                 : 1 h 43 min
Bit rate                                 : 1 150 kb/s
Width                                    : 1 280 pixels
Height                                   : 694 pixels
Display aspect ratio                     : 1.85:1
Frame rate mode                          : Constant
Frame rate                               : 23.976 (24000/1001) FPS
Color space                              : YUV
Chroma subsampling                       : 4:2:0
Bit depth                                : 8 bits
Scan type                                : Progressive
Bits/(Pixel*Frame)                       : 0.054
Stream size                              : 851 MiB (90%)
Title                                    : 720P - Filmbol.org
Writing library                          : x264 core 161
Encoding settings                        : cabac=1 / ref=4 / deblock=1:-1:-1 / analyse=0x3:0x133 / me=umh / subme=9 / psy=1 / psy_rd=1.00:0.15 / mixed_ref=1 / me_range=24 / chroma_me=1 / trellis=2 / 8x8dct=1 / cqm=0 / deadzone=21,11 / fast_pskip=0 / chroma_qp_offset=-3 / threads=22 / lookahead_threads=1 / sliced_threads=0 / nr=0 / decimate=1 / interlaced=0 / bluray_compat=0 / constrained_intra=0 / bframes=3 / b_pyramid=2 / b_adapt=2 / b_bias=0 / direct=3 / weightb=1 / open_gop=0 / weightp=2 / keyint=250 / keyint_min=23 / scenecut=40 / intra_refresh=0 / rc_lookahead=60 / rc=2pass / mbtree=1 / bitrate=1150 / ratetol=1.0 / qcomp=0.60 / qpmin=0 / qpmax=69 / qpstep=4 / cplxblur=20.0 / qblur=0.5 / vbv_maxrate=31250 / vbv_bufsize=31250 / nal_hrd=none / filler=0 / ip_ratio=1.40 / aq=1:1.00
Default                                  : Yes
Forced                                   : No
Color range                              : Limited
Color primaries                          : BT.709
Transfer characteristics                 : BT.709
Matrix coefficients                      : BT.709

Audio
ID                                       : 2
Format                                   : AAC LC
Format/Info                              : Advanced Audio Codec Low Complexity
Codec ID                                 : A_AAC-2
Duration                                 : 1 h 43 min
Bit rate                                 : 129 kb/s
Channel(s)                               : 2 channels
Channel layout                           : L R
Sampling rate                            : 48.0 kHz
Frame rate                               : 46.875 FPS (1024 SPF)
Compression mode                         : Lossy
Delay relative to video                  : 56 ms
Stream size                              : 95.2 MiB (10%)
Title                                    : Orijinal Dil - Filmbol.org
Language                                 : English
Default                                  : Yes
Forced                                   : No

Text
ID                                       : 3
Format                                   : UTF-8
Codec ID                                 : S_TEXT/UTF8
Codec ID/Info                            : UTF-8 Plain Text
Duration                                 : 1 h 34 min
Bit rate                                 : 54 b/s
Count of elements                        : 1260
Stream size                              : 38.2 KiB (0%)
Title                                    : Türkçe - Filmbol.org
Language                                 : Turkish
Default                                  : Yes
Forced                                   : Yes

Film Detayları


 Arınma Gecesi: Sonsuza Dek

 Arınma Gecesi: Sonsuza Dek

 Arınma Gecesi: Sonsuza Dek


Film Fragmanı


Film Detayları



Zip Şifresi: filmbol.org Aşağıdaki butona tıklayarak kopyalabilirsiniz.

Film Türkçe Altyazılıdır (Forced Değil). Altyazı dosyası Eklidir. İyi Seyirler...

Uptobox ile indir

1Fichier ile indir

1Fichier'den İndiremiyor musun? Tıklayın!






Filmbol Cloud

Bunun için üzgünüz ancak, bu linke sadece premium üyeler erişebilir.




WWW
Şuan Online!
Şuan Online!
Space Yeni Üye
*
Üye
  • Konular0
  • Mesajlar70
  • Rep puanı 0
arınma gecesinin en kötü filmi diğerlerinin yanından bile geçmez 3/10
Şuan Offine!
Şuan Offine!
d3c0d3 Yeni Üye
*
Üye
  • Konular0
  • Mesajlar10
  • Rep puanı 0
Teşekkürler.


Hızlı Menü: