Filmbol Forum Film İndir 1080P v Gerçek Kahraman (Free Guy) - 2021 - Türkçe Altyazı! - 1080P | tt6264654
Bildirimi Kapat
Server kaynaklı problemden dolayı ciddi bir sorun yaşadık. Şuanda forum ve portal aktif halde ancak bazı problemler hala devam ediyor. Problem gördüğünüz yerleri bize bildirmeniz çok önemli. Teşekkürler.

Bildirimi Kapat
Merhaba , site giderlerini bir nebze olsun karşılamak adına link kısaltma servisleri kullanmaya başladık. İndirme linkleri sizi ouo.io adresinde yönlendirecek, 3 saniye geçtikten sonra Get Link butonuna tıklayarak linke ulaşacaksınız. Premium üyeler bu durumdan etkilenmeyecektir.


Premium Üyelik Al

Gerçek Kahraman (Free Guy) - 2021 - Türkçe Altyazı! - 1080P | tt6264654
BroserBros
Gerçek Kahraman (Free Guy) - 2021 - Türkçe Altyazı! - 1080P | tt6264654
8
396
  • Derecelendirme: 0/5 - 0 oy
  • 1
  • 2
  • 3
  • 4
  • 5
Konuyu Okuyanlar:5 Ziyaretçi
Şuan Online!
Filmin Yayınlanma Tarihi: 2021 
Şuan Online!
BroserBros Kurucu Admin
*******
Admin


 Gerçek Kahraman



Gerçek Kahraman, açık dünya oyunu olan Free City'de bir arka plan karakteri olduğunu keşfeden bir banka kamu personeliunun sıradışı hikayesini konu ediyor. Guy, rutin bir yaşam süren ve bir bankada kamu personeli olarak çalışan genç bir adamdır. Bir gün genç adam, Free City adında acımasız bir açık dünya oyununda arka plan karakteri olduğunu keşfeder. Bu keşif onun yaşamının bambaşka bir hal almasına neden olur. Artık kendi hikayesinin kahramanı olmaya karar veren Guy, sınırları olmayan bu dünyada hayatta kalmak ve diğer karakterleri kurtarmak için zorlu bir mücadeleye girişir.

Gerçek Kahraman (2021) | tt6264654 Filmi Imdb'den 70,000 kişi tarafından oylandı ve 7,5 puan aldı. Bu film için editör puanı %89 olarak belirlendi. İyi Seyirler!

Teknik Detaylar

Kod :
General
Unique ID                                : 7559263610920810723176833943608158276 (0x5AFDC788F0349BF59A1A60636AAE844)
Complete name                            : C:\Users\Administrator\Desktop\Yenile\Gerçek.Kahraman.2021.1080p.BluRay.x264.Türkçe.Altyazı.Filmbol.mkv
Format                                   : Matroska
Format version                           : Version 4
File size                                : 1.91 GiB
Duration                                 : 1 h 54 min
Overall bit rate                         : 2 381 kb/s
Movie name                               : Gerçek Kahraman - Free Guy - 2021 | Filmbol.org
Encoded date                             : UTC 2021-09-25 15:49:59
Writing application                      : mkvmerge v61.0.0 ('So') 64-bit
Writing library                          : libebml v1.4.2 + libmatroska v1.6.4

Video
ID                                       : 1
Format                                   : AVC
Format/Info                              : Advanced Video Codec
Format profile                           : [email protected]
Format settings                          : CABAC / 4 Ref Frames
Format settings, CABAC                   : Yes
Format settings, Reference frames        : 4 frames
Codec ID                                 : V_MPEG4/ISO/AVC
Duration                                 : 1 h 54 min
Bit rate                                 : 2 250 kb/s
Width                                    : 1 920 pixels
Height                                   : 800 pixels
Display aspect ratio                     : 2.40:1
Frame rate mode                          : Constant
Frame rate                               : 23.976 (24000/1001) FPS
Color space                              : YUV
Chroma subsampling                       : 4:2:0
Bit depth                                : 8 bits
Scan type                                : Progressive
Bits/(Pixel*Frame)                       : 0.061
Stream size                              : 1.81 GiB (95%)
Title                                    : 1080P - Filmbol.org
Writing library                          : x264 core 161
Encoding settings                        : cabac=1 / ref=4 / deblock=1:-1:-1 / analyse=0x3:0x133 / me=umh / subme=9 / psy=1 / psy_rd=1.00:0.15 / mixed_ref=1 / me_range=24 / chroma_me=1 / trellis=2 / 8x8dct=1 / cqm=0 / deadzone=21,11 / fast_pskip=0 / chroma_qp_offset=-3 / threads=24 / lookahead_threads=2 / sliced_threads=0 / nr=0 / decimate=1 / interlaced=0 / bluray_compat=0 / constrained_intra=0 / bframes=3 / b_pyramid=2 / b_adapt=2 / b_bias=0 / direct=3 / weightb=1 / open_gop=0 / weightp=2 / keyint=250 / keyint_min=23 / scenecut=40 / intra_refresh=0 / rc_lookahead=60 / rc=2pass / mbtree=1 / bitrate=2250 / ratetol=1.0 / qcomp=0.60 / qpmin=0 / qpmax=69 / qpstep=4 / cplxblur=20.0 / qblur=0.5 / vbv_maxrate=31250 / vbv_bufsize=31250 / nal_hrd=none / filler=0 / ip_ratio=1.40 / aq=1:1.00
Default                                  : Yes
Forced                                   : No
Color range                              : Limited
Matrix coefficients                      : BT.709

Audio
ID                                       : 2
Format                                   : AAC LC
Format/Info                              : Advanced Audio Codec Low Complexity
Codec ID                                 : A_AAC-2
Duration                                 : 1 h 54 min
Bit rate                                 : 128 kb/s
Channel(s)                               : 2 channels
Channel layout                           : L R
Sampling rate                            : 48.0 kHz
Frame rate                               : 46.875 FPS (1024 SPF)
Compression mode                         : Lossy
Stream size                              : 105 MiB (5%)
Title                                    : Orijinal Dil - Filmbol.org
Language                                 : English
Default                                  : Yes
Forced                                   : No

Text
ID                                       : 3
Format                                   : UTF-8
Codec ID                                 : S_TEXT/UTF8
Codec ID/Info                            : UTF-8 Plain Text
Duration                                 : 1 h 45 min
Bit rate                                 : 79 b/s
Count of elements                        : 1828
Stream size                              : 61.2 KiB (0%)
Title                                    : Türkçe - Filmbol.org
Language                                 : Turkish
Default                                  : No
Forced                                   : No

Film Detayları


 Gerçek Kahraman

 Gerçek Kahraman

 Gerçek Kahraman


Film Fragmanı


Film Detayları



Zip Şifresi: filmbol.org Aşağıdaki butona tıklayarak kopyalabilirsiniz.

Film Türkçe Altyazılıdır (Forced Değil). Altyazı dosyası Eklidir. İyi Seyirler...

Uptobox ile indir

1Fichier ile indir

1Fichier'den İndiremiyor musun? Tıklayın!






Filmbol Cloud

Bunun için üzgünüz ancak, bu linke sadece premium üyeler erişebilir.




WWW
Şuan Offine!
Şuan Offine!
ay_han86 Yeni Üye
*
Üye
  • Konular0
  • Mesajlar5
  • Rep puanı 0
Teşekkürler.
Şuan Offine!
Şuan Offine!
Aybek Yeni Üye
*
Üye
  • Konular0
  • Mesajlar24
  • Rep puanı 0
Teşekkürler.
Şuan Offine!
Şuan Offine!
ynsozi Yeni Üye
*
Üye
  • Konular0
  • Mesajlar10
  • Rep puanı 0
Teşekkürler.
Şuan Offine!
Şuan Offine!
FarukSavasss Yeni Üye
*
Üye
  • Konular0
  • Mesajlar3
  • Rep puanı 0
Teşekkürler.
Şuan Offine!
Şuan Offine!
Tunayolcu Yeni Üye
*
Üye
  • Konular0
  • Mesajlar1
  • Rep puanı 0
Teşekkürler.
Şuan Offine!
Şuan Offine!
hdengin Uzman Üye
**
Uzman Üye
  • Konular0
  • Mesajlar36
  • Rep puanı 10
Teşekkürler.
Şuan Online!
Şuan Online!
emretas Yeni Üye
*
Üye
  • Konular0
  • Mesajlar17
  • Rep puanı 0
Teşekkürler.
Şuan Offine!
Şuan Offine!
Aspirin46 Süper Üye
***
Super Üye
  • Konular0
  • Mesajlar97
  • Rep puanı 0
Teşekkürler.


Hızlı Menü: