Filmbol Forum Film İndir FHD - FULL HD v Cry Macho - 2021 - Türkçe Altyazı! - FHD - x264 | tt1924245
Bildirimi Kapat
Server kaynaklı problemden dolayı ciddi bir sorun yaşadık. Şuanda forum ve portal aktif halde ancak bazı problemler hala devam ediyor. Problem gördüğünüz yerleri bize bildirmeniz çok önemli. Teşekkürler.

Bildirimi Kapat
Merhaba , site giderlerini bir nebze olsun karşılamak adına link kısaltma servisleri kullanmaya başladık. İndirme linkleri sizi ouo.io adresinde yönlendirecek, 3 saniye geçtikten sonra Get Link butonuna tıklayarak linke ulaşacaksınız. Premium üyeler bu durumdan etkilenmeyecektir.


Premium Üyelik Al

Cry Macho - 2021 - Türkçe Altyazı! - FHD - x264 | tt1924245
BroserBros
Cry Macho - 2021 - Türkçe Altyazı! - FHD - x264 | tt1924245
0
9
  • Derecelendirme: 0/5 - 0 oy
  • 1
  • 2
  • 3
  • 4
  • 5
Konuyu Okuyanlar:1 Ziyaretçi
Şuan Online!
Filmin Yayınlanma Tarihi: 2021 
Şuan Online!
BroserBros Kurucu Admin
*******
Admin


 Cry Macho



Kovboy (Western) tarzı film sevenlerin kesinlikle seveceği bir Clint Eastwood filmi olan Cry Macho tekil bir ada sahip ve film adının Türkçe çevirisi yok. 2021 yapımı olan bu filmin konusu ise..

Bir at yetiştiricisi olan, kendi halinde, kimine göre zavallı bir adam yeni bir iş teklifi alır. Bir beyefendi yanına gelerek ona yüklü miktarda para ödemesi yapacağını, ancak önce ondan istediklerini yerine getirmesini ister. Durum böyle olunca, paraya ihtiyacı olan bu yaşlı adam görevi kabul eder. Görev görünürde basittir. Alkolik bir annenin elinden çocuğunu alacak ve babasının yanına getirecektir. Ancak işin içine girdikten sonra olaylar baya farklılaşmaya başlar...

Bir çok yapım ile dikkatimizi çeken ödüllü yönetmen Clint Eastwood tarafından ele alınan bu filmin oyuncu kadrosunda Clint Eastwood, Dwight Yoakam, Fernanda Urrejola gibi isimler yer alıyor...

Cry Macho (2021) | tt1924245 Filmi Imdb'den 6,000 kişi tarafından oylandı ve 5,9 puan aldı. Bu film için editör puanı %67 olarak belirlendi. İyi Seyirler!

Teknik Detaylar

Kod :
General
Unique ID                                : 115679383006042072497836045837558516266 (0x570709ECB2662E72E9274B46ABC28A2A)
Complete name                            : C:\Users\Administrator\Desktop\2\Cry.Macho.2021.FHD.BluRay.x264.Türkçe.Altyazı.Filmbol.mkv
Format                                   : Matroska
Format version                           : Version 4
File size                                : 6.25 GiB
Duration                                 : 1 h 43 min
Overall bit rate mode                    : Variable
Overall bit rate                         : 8 620 kb/s
Movie name                               : Cry Macho - 2021 | Filmbol.org
Encoded date                             : UTC 2021-09-21 14:33:37
Writing application                      : mkvmerge v61.0.0 ('So') 64-bit
Writing library                          : libebml v1.4.2 + libmatroska v1.6.4

Video
ID                                       : 1
Format                                   : AVC
Format/Info                              : Advanced Video Codec
Format profile                           : [email protected]
Format settings                          : CABAC / 4 Ref Frames
Format settings, CABAC                   : Yes
Format settings, Reference frames        : 4 frames
Codec ID                                 : V_MPEG4/ISO/AVC
Duration                                 : 1 h 43 min
Bit rate mode                            : Variable
Bit rate                                 : 8 250 kb/s
Maximum bit rate                         : 12.4 Mb/s
Width                                    : 1 920 pixels
Height                                   : 816 pixels
Display aspect ratio                     : 2.35:1
Frame rate mode                          : Constant
Frame rate                               : 23.976 (24000/1001) FPS
Color space                              : YUV
Chroma subsampling                       : 4:2:0
Bit depth                                : 8 bits
Scan type                                : Progressive
Bits/(Pixel*Frame)                       : 0.220
Stream size                              : 5.97 GiB (96%)
Title                                    : FHD - Filmbol.org
Writing library                          : x264 core 157 r2965 861cec4
Encoding settings                        : cabac=1 / ref=4 / deblock=1:0:0 / analyse=0x3:0x113 / me=hex / subme=7 / psy=1 / psy_rd=1.00:0.00 / mixed_ref=1 / me_range=16 / chroma_me=1 / trellis=1 / 8x8dct=1 / cqm=0 / deadzone=21,11 / fast_pskip=1 / chroma_qp_offset=-2 / threads=25 / lookahead_threads=4 / sliced_threads=0 / nr=0 / decimate=1 / interlaced=0 / bluray_compat=0 / constrained_intra=0 / bframes=3 / b_pyramid=2 / b_adapt=1 / b_bias=0 / direct=1 / weightb=1 / open_gop=0 / weightp=2 / keyint=96 / keyint_min=96 / scenecut=40 / intra_refresh=0 / rc_lookahead=40 / rc=2pass / mbtree=1 / bitrate=8250 / ratetol=1.0 / qcomp=0.60 / qpmin=0 / qpmax=69 / qpstep=4 / cplxblur=20.0 / qblur=0.5 / vbv_maxrate=12375 / vbv_bufsize=6187 / nal_hrd=vbr / filler=0 / ip_ratio=1.40 / aq=1:1.00
Default                                  : Yes
Forced                                   : No
Color range                              : Limited
Color primaries                          : BT.709
Transfer characteristics                 : BT.709
Matrix coefficients                      : BT.709

Audio
ID                                       : 2
Format                                   : AC-3
Format/Info                              : Audio Coding 3
Commercial name                          : Dolby Digital
Codec ID                                 : A_AC3
Duration                                 : 1 h 43 min
Bit rate mode                            : Constant
Bit rate                                 : 384 kb/s
Channel(s)                               : 6 channels
Channel layout                           : L R C LFE Ls Rs
Sampling rate                            : 48.0 kHz
Frame rate                               : 31.250 FPS (1536 SPF)
Compression mode                         : Lossy
Stream size                              : 285 MiB (4%)
Title                                    : Orijinal Dil - Filmbol.org
Language                                 : English
Service kind                             : Complete Main
Default                                  : No
Forced                                   : No

Text #1
ID                                       : 3
Format                                   : UTF-8
Codec ID                                 : S_TEXT/UTF8
Codec ID/Info                            : UTF-8 Plain Text
Duration                                 : 1 h 34 min
Bit rate                                 : 47 b/s
Count of elements                        : 1306
Stream size                              : 32.6 KiB (0%)
Title                                    : Türkçe - Filmbol.org
Language                                 : Turkish
Default                                  : Yes
Forced                                   : Yes

Text #2
ID                                       : 4
Format                                   : UTF-8
Codec ID                                 : S_TEXT/UTF8
Codec ID/Info                            : UTF-8 Plain Text
Duration                                 : 1 h 42 min
Bit rate                                 : 41 b/s
Count of elements                        : 1297
Stream size                              : 31.3 KiB (0%)
Title                                    : Orijinal Dil - Filmbol.org
Language                                 : English
Default                                  : No
Forced                                   : No

Text #3
ID                                       : 5
Format                                   : UTF-8
Codec ID                                 : S_TEXT/UTF8
Codec ID/Info                            : UTF-8 Plain Text
Duration                                 : 1 h 43 min
Bit rate                                 : 51 b/s
Count of elements                        : 1557
Stream size                              : 39.0 KiB (0%)
Title                                    : Orijinal Dil SDH - Filmbol.org
Language                                 : English
Default                                  : No
Forced                                   : No

Film Detayları


 Cry Macho

 Cry Macho

 Cry Macho


Film Fragmanı


Film Detayları



Zip Şifresi: filmbol.org Aşağıdaki butona tıklayarak kopyalabilirsiniz.

Film Türkçe Altyazılıdır (Forced Değil). Altyazı dosyası Eklidir. İyi Seyirler...



Filmbol Cloud

Bunun için üzgünüz ancak, bu linke sadece premium üyeler erişebilir.




WWW


Hızlı Menü: