Filmbol Forum Film İndir 720P v Zamanda Tutsak (Old) - 2021 - Türkçe Altyazı! - 720P | tt10954652
Bildirimi Kapat
Server kaynaklı problemden dolayı ciddi bir sorun yaşadık. Şuanda forum ve portal aktif halde ancak bazı problemler hala devam ediyor. Problem gördüğünüz yerleri bize bildirmeniz çok önemli. Teşekkürler.

Bildirimi Kapat
Merhaba , site giderlerini bir nebze olsun karşılamak adına link kısaltma servisleri kullanmaya başladık. İndirme linkleri sizi ouo.io adresinde yönlendirecek, 3 saniye geçtikten sonra Get Link butonuna tıklayarak linke ulaşacaksınız. Premium üyeler bu durumdan etkilenmeyecektir.


Premium Üyelik Al

Zamanda Tutsak (Old) - 2021 - Türkçe Altyazı! - 720P | tt10954652
BroserBros
Zamanda Tutsak (Old) - 2021 - Türkçe Altyazı! - 720P | tt10954652
1
125
  • Derecelendirme: 0/5 - 0 oy
  • 1
  • 2
  • 3
  • 4
  • 5
Konuyu Okuyanlar:1 Ziyaretçi
Şuan Online!
Filmin Yayınlanma Tarihi: 2021 
Şuan Online!
BroserBros Kurucu Admin
*******
Admin


 Zamanda Tutsak



Kategorisi Gerilim ve Fantastik olsa da, bence biraz Bilim Kurgu ile harmanlanmış bir film olan Zamanda Tutsak yada diğer adı ile Old filmi, fantastik gerilimleri seviyorsanız kesinlikle kaçırmamanız gereken bir film. 2021 yapımı olan filmin özeti ise şöyle...

Bir aile standart tatillerden bıkmış ve kendilerini özel hissedecekleri ve daha önceki insanların pek gitmediği bir tatil yerine gitmeye karar verir. Seçtikleri yer herhangi bir ülkeye ait olmayan bir adadır. Bu ada başta çok sevimli gözükse de, zamanla burada işler garipleşmeye başlar. Aile burada kaldıkları süre boyunca gitgide yaşlanmaya başlar ve burada 1 gün 1 insan ömrü anlamına geldiğinde aile yok olmaya başlar...

Film oyuncu kadrosunda Gael García Bernal, Vicky Krieps, Rufus Sewell gibi isimler yer alıyor. Yönetmen koltuğu ise M. Night Shyamalan'a ait.

Zamanda Tutsak (2021) (Old) | tt10954652 Filmi Imdb'den 32,000 kişi tarafından oylandı ve 5,8 puan aldı. Bu film için editör puanı %63 olarak belirlendi. İyi Seyirler!

Teknik Detaylar

Kod :
General
Unique ID                                : 275904979731705221207211473626736141514 (0xCF915DC10EE69C300DCDC5DFC3F4A4CA)
Complete name                            : C:\Users\Administrator\Desktop\4\Zamanda.Tutsak.2021.720p.BluRay.x264.Türkçe.Altyazı.Filmbol.mkv
Format                                   : Matroska
Format version                           : Version 4
File size                                : 796 MiB
Duration                                 : 1 h 48 min
Overall bit rate                         : 1 027 kb/s
Movie name                               : Zamanda Tutsak - Old - 2021 | Filmbol.org
Encoded date                             : UTC 2021-09-21 17:37:51
Writing application                      : mkvmerge v61.0.0 ('So') 64-bit
Writing library                          : libebml v1.4.2 + libmatroska v1.6.4

Video
ID                                       : 1
Format                                   : AVC
Format/Info                              : Advanced Video Codec
Format profile                           : [email protected]
Format settings                          : CABAC / 4 Ref Frames
Format settings, CABAC                   : Yes
Format settings, Reference frames        : 4 frames
Codec ID                                 : V_MPEG4/ISO/AVC
Duration                                 : 1 h 48 min
Bit rate                                 : 929 kb/s
Width                                    : 1 280 pixels
Height                                   : 720 pixels
Display aspect ratio                     : 16:9
Frame rate mode                          : Constant
Frame rate                               : 23.976 FPS
Color space                              : YUV
Chroma subsampling                       : 4:2:0
Bit depth                                : 8 bits
Scan type                                : Progressive
Bits/(Pixel*Frame)                       : 0.042
Stream size                              : 720 MiB (90%)
Title                                    : 720P - Filmbol.org
Writing library                          : x264 core 157
Encoding settings                        : cabac=1 / ref=2 / deblock=1:0:0 / analyse=0x3:0x113 / me=hex / subme=4 / psy=1 / psy_rd=1.00:0.00 / mixed_ref=0 / me_range=16 / chroma_me=1 / trellis=1 / 8x8dct=1 / cqm=0 / deadzone=21,11 / fast_pskip=1 / chroma_qp_offset=0 / threads=22 / lookahead_threads=5 / sliced_threads=0 / nr=0 / decimate=1 / interlaced=0 / bluray_compat=0 / constrained_intra=0 / bframes=3 / b_pyramid=2 / b_adapt=1 / b_bias=0 / direct=1 / weightb=1 / open_gop=0 / weightp=1 / keyint=250 / keyint_min=23 / scenecut=40 / intra_refresh=0 / rc_lookahead=20 / rc=2pass / mbtree=1 / bitrate=929 / ratetol=1.0 / qcomp=0.60 / qpmin=0 / qpmax=69 / qpstep=4 / cplxblur=20.0 / qblur=0.5 / ip_ratio=1.40 / aq=1:1.00
Default                                  : Yes
Forced                                   : No

Audio
ID                                       : 2
Format                                   : AAC LC
Format/Info                              : Advanced Audio Codec Low Complexity
Codec ID                                 : A_AAC-2
Duration                                 : 1 h 48 min
Bit rate                                 : 96.0 kb/s
Channel(s)                               : 2 channels
Channel layout                           : L R
Sampling rate                            : 44.1 kHz
Frame rate                               : 43.066 FPS (1024 SPF)
Compression mode                         : Lossy
Stream size                              : 74.4 MiB (9%)
Title                                    : Orijinal Dil - Filmbol.org
Language                                 : English
Default                                  : Yes
Forced                                   : No

Text #1
ID                                       : 3
Format                                   : UTF-8
Codec ID                                 : S_TEXT/UTF8
Codec ID/Info                            : UTF-8 Plain Text
Duration                                 : 1 h 40 min
Bit rate                                 : 54 b/s
Count of elements                        : 1341
Stream size                              : 39.7 KiB (0%)
Title                                    : Türkçe (Beyaz) - Filmbol.org
Language                                 : Turkish
Default                                  : Yes
Forced                                   : Yes

Text #2
ID                                       : 4
Format                                   : UTF-8
Codec ID                                 : S_TEXT/UTF8
Codec ID/Info                            : UTF-8 Plain Text
Duration                                 : 1 h 40 min
Bit rate                                 : 54 b/s
Count of elements                        : 1341
Stream size                              : 39.8 KiB (0%)
Title                                    : Türkçe (Sarı) - Filmbol.org
Language                                 : Turkish
Default                                  : No
Forced                                   : No

Film Detayları


 Zamanda Tutsak

 Zamanda Tutsak

 Zamanda Tutsak


Film Fragmanı


Film Detayları



Zip Şifresi: filmbol.org Aşağıdaki butona tıklayarak kopyalabilirsiniz.

Film Türkçe Altyazılıdır (Forced Değil). Altyazı dosyası Eklidir. İyi Seyirler...

Uptobox ile indir

1Fichier ile indir

1Fichier'den İndiremiyor musun? Tıklayın!






Filmbol Cloud

Bunun için üzgünüz ancak, bu linke sadece premium üyeler erişebilir.




WWW
Şuan Online!
Şuan Online!
Space Yeni Üye
*
Üye
  • Konular0
  • Mesajlar70
  • Rep puanı 0
Teşekkürler.


Hızlı Menü: