⤤ Premium'a Yükselt

Merhaba, Ziyaretçi. Mega linklerinin bir kısmı deaktif halde ve yenileme çalışmalarına başladık. Bu süre içinde ikinci duyuruya kadar mega linklerini raporlamayın!! x

Filmbol Forum Film İndir FHD - FULL HD v Bir Ulusun Doğuşu (The Birth of a Nation) - 2016 - TR+ORG - FHD - x264 | tt4196450

Filmbol TV kullanıma açıldı. Bu adresten giriş yapabilirsin: Giriş





Bir Ulusun Doğuşu (The Birth of a Nation) - 2016 - TR+ORG - FHD - x264 | tt4196450
BroserBros
Bir Ulusun Doğuşu (The Birth of a Nation) - 2016 - TR+ORG - FHD - x264 | tt4196450
1
109
  • Derecelendirme: 0/5 - 0 oy
  • 1
  • 2
  • 3
  • 4
  • 5
Konuyu Okuyanlar:1 Ziyaretçi
Şuan Online!
Filmin Yayınlanma Tarihi: 2016 
WWW
Rapor Et!
Şuan Online!
BroserBros Kurucu Admin
*******
Admin



 Bir Ulusun Doğuşu



Film, bir iç savaş sürecinde yaşanan olaylara ve dönüşümlere ışık tutmaktadır. Amerikan İç Savaşı ile ülke başta sona kavrulmaktadır. Ölümler, kayıplar, acılar diz boyudur. Savaş bittiğinde ise yeniden yapılanma zamanıdır. Bu süreçte kölelik yasaklanır. Başkan Lincoln’ün suikastiyle, yeni oluşan güven ortamı yerini kaos ve anarşiye bırakır. Beyaz çiftlik sahipleri türlü çetelerin saldırılarına uğrarlar güneyde. Polis ile güçlerini birleştiren siyahlar ve melezler beyazları taciz eder. Asayiş için bir çare olarak Klan kurulur. Haçlı şövalyelerini andıran giysileriyle Ku-Klux-Klan üyeleri gecelerin hakimidir artık. Devletin sağlayamadığı adaleti getirecek olanlar onlardır.

Bir Ulusun Doğuşu (2016) (The Birth of a Nation) | tt4196450 Filmi Imdb'den 25,000 kişi tarafından oylandı ve 6,4 puan aldı. Bu film için editör puanı %65 olarak belirlendi. İyi Seyirler!

Teknik Detaylar

Kod :
General
Unique ID                                : 234503056168888038343309133490088141063 (0xB06BA552A9E9DCE1BF172A1C839D6107)
Complete name                            : C:\Users\Administrator\Desktop\6\Bir.Ulusun.Doğuşu.2016.FHD.BluRay.x264.TR.ENG.Filmbol.mkv
Format                                   : Matroska
Format version                           : Version 4
File size                                : 5.93 GiB
Duration                                 : 1 h 59 min
Overall bit rate                         : 7 082 kb/s
Movie name                               : Bir Ulusun Doğuşu - The Birth Of A Nation - 2016 | Filmbol.org
Encoded date                             : UTC 2021-08-02 08:41:51
Writing application                      : mkvmerge v59.0.0 ('Shining Star') 64-bit
Writing library                          : libebml v1.4.2 + libmatroska v1.6.4

Video
ID                                       : 1
Format                                   : AVC
Format/Info                              : Advanced Video Codec
Format profile                           : [email protected]
Format settings                          : CABAC / 4 Ref Frames
Format settings, CABAC                   : Yes
Format settings, Reference frames        : 4 frames
Codec ID                                 : V_MPEG4/ISO/AVC
Duration                                 : 1 h 59 min
Bit rate                                 : 6 048 kb/s
Nominal bit rate                         : 6 500 kb/s
Width                                    : 1 920 pixels
Height                                   : 800 pixels
Display aspect ratio                     : 2.40:1
Frame rate mode                          : Constant
Frame rate                               : 23.976 (24000/1001) FPS
Color space                              : YUV
Chroma subsampling                       : 4:2:0
Bit depth                                : 8 bits
Scan type                                : Progressive
Bits/(Pixel*Frame)                       : 0.164
Stream size                              : 5.06 GiB (85%)
Title                                    : FHD - Filmbol.org
Writing library                          : x264 core 157 r2969
Encoding settings                        : cabac=1 / ref=3 / deblock=1:0:0 / analyse=0x3:0x133 / me=hex / subme=7 / psy=1 / psy_rd=1.00:0.00 / mixed_ref=1 / me_range=16 / chroma_me=1 / trellis=1 / 8x8dct=1 / cqm=0 / deadzone=21,11 / fast_pskip=1 / chroma_qp_offset=-2 / threads=6 / lookahead_threads=1 / sliced_threads=0 / nr=0 / decimate=1 / interlaced=0 / bluray_compat=0 / constrained_intra=0 / bframes=3 / b_pyramid=2 / b_adapt=1 / b_bias=0 / direct=1 / weightb=1 / open_gop=0 / weightp=2 / keyint=250 / keyint_min=25 / scenecut=40 / intra_refresh=0 / rc_lookahead=40 / rc=abr / mbtree=1 / bitrate=6500 / ratetol=1.0 / qcomp=0.60 / qpmin=10 / qpmax=51 / qpstep=4 / ip_ratio=1.40 / aq=1:1.00
Default                                  : Yes
Forced                                   : No

Audio #1
ID                                       : 2
Format                                   : AC-3
Format/Info                              : Audio Coding 3
Commercial name                          : Dolby Digital
Codec ID                                 : A_AC3
Duration                                 : 1 h 59 min
Bit rate mode                            : Constant
Bit rate                                 : 448 kb/s
Channel(s)                               : 6 channels
Channel layout                           : L R C LFE Ls Rs
Sampling rate                            : 48.0 kHz
Frame rate                               : 31.250 FPS (1536 SPF)
Compression mode                         : Lossy
Delay relative to video                  : -84 ms
Stream size                              : 384 MiB (6%)
Title                                    : Türkçe - Filmbol.org
Language                                 : Turkish
Service kind                             : Complete Main
Default                                  : Yes
Forced                                   : No

Audio #2
ID                                       : 3
Format                                   : AAC LC
Format/Info                              : Advanced Audio Codec Low Complexity
Codec ID                                 : A_AAC-2
Duration                                 : 1 h 59 min
Bit rate                                 : 576 kb/s
Channel(s)                               : 6 channels
Channel layout                           : C L R Ls Rs LFE
Sampling rate                            : 48.0 kHz
Frame rate                               : 46.875 FPS (1024 SPF)
Compression mode                         : Lossy
Delay relative to video                  : -64 ms
Stream size                              : 496 MiB (8%)
Title                                    : Orijinal Dil - Filmbol.org
Language                                 : English
Default                                  : Yes
Forced                                   : No

Text #1
ID                                       : 4
Format                                   : UTF-8
Codec ID                                 : S_TEXT/UTF8
Codec ID/Info                            : UTF-8 Plain Text
Duration                                 : 1 h 50 min
Bit rate                                 : 40 b/s
Count of elements                        : 945
Stream size                              : 32.9 KiB (0%)
Title                                    : Türkçe - Filmbol.org
Language                                 : Turkish
Default                                  : No
Forced                                   : No

Text #2
ID                                       : 5
Format                                   : VobSub
Muxing mode                              : zlib
Codec ID                                 : S_VOBSUB
Codec ID/Info                            : Picture based subtitle format used on DVDs
Duration                                 : 1 h 50 min
Bit rate                                 : 7 915 b/s
Count of elements                        : 1331
Stream size                              : 6.24 MiB (0%)
Title                                    : Orijinal Dil - Filmbol.org
Language                                 : English
Default                                  : No
Forced                                   : No

Film Detayları


 Bir Ulusun Doğuşu

 Bir Ulusun Doğuşu

 Bir Ulusun Doğuşu


Film Fragmanı


Film İndir


Rar Şifresi: filmbol.org










Şuan Offine!
Rapor Et!
Şuan Offine!
kaydee Süper Üye
***
Super Üye
  • Konular0
  • Mesajlar339
  • Rep puanı 0
Teşekkürler.


Hızlı Menü: