Filmbol Forum Film İndir 1080P v Korku Sokağı 2. Kısım: 1978 (Fear Street: 1978) - 2021 - TR+ORG - 1080P | tt9701940
Bildirimi Kapat
Merhaba , site giderlerini bir nebze olsun karşılamak adına link kısaltma servisleri kullanmaya başladık. İndirme linkleri sizi ouo.io adresinde yönlendirecek, 3 saniye geçtikten sonra Get Link butonuna tıklayarak linke ulaşacaksınız. Premium üyeler bu durumdan etkilenmeyecektir.


Premium Üyelik Al

Korku Sokağı 2. Kısım: 1978 (Fear Street: 1978) - 2021 - TR+ORG - 1080P | tt9701940
TheSteeL
Korku Sokağı 2. Kısım: 1978 (Fear Street: 1978) - 2021 - TR+ORG - 1080P | tt9701940
5
2886
  • Derecelendirme: 0/5 - 0 oy
  • 1
  • 2
  • 3
  • 4
  • 5
Konuyu Okuyanlar:2 Ziyaretçi
Şuan Online!
Filmin Yayınlanma Tarihi: 2021 
Şuan Online!
TheSteeL Chief Executive Officer
******
CEO


 Korku Sokağı 2. Kısım: 1978



NetFlix'in üçlemesi olan Korku Sokağı filminin ikinci serisi, yine korku dolu anlara şahitlik ediyor. Camp Nightwing isminde bir tatil kasabasına birdenbire insanlar dolmaya başlar. Bu küçük ve sevimli tatil kasabasına ger türden insanlar gelince, kasaba şenlenir. Fakat bu şenlik geçici olduğundan, insanlar zamanla kasabanın geçmişini öğrenmeye başlayacak ve kötü geçmişi sonucu olarak kasabada ilginç şeyler yaşanmaya başlayacaktır...

Korku Sokağı 2. Kısım: 1978 (2021) | tt9701940 Filmi Imdb'den 14000 kişi tarafından oylandı ve 6,8 puan aldı. Bu film için editör puanı %76 olarak belirlendi. İyi Seyirler!

Teknik Detaylar

Kod :
General
Unique ID                                : 300840087038727373714139418568863073431 (0xE253B17635D0ABA80F900CDBC3354497)
Complete name                            : /home/TheSteel/Desktop/4/Korku.Sokagi.2.Kisim.1978.2021.1080p.NF.WEB-DL.x264.TR.ENG.Filmbol.mkv
Format                                   : Matroska
Format version                           : Version 4
File size                                : 2.19 GiB
Duration                                 : 1 h 50 min
Overall bit rate                         : 2 827 kb/s
Movie name                               : Korku Sokağı 2. Kısım: 1978 - Fear Street: 1978 - 2021  | Filmbol.org
Encoded date                             : UTC 2021-07-15 12:46:31
Writing application                      : mkvmerge v31.0.0 ('Dolores In A Shoestand') 64-bit
Writing library                          : libebml v1.3.6 + libmatroska v1.4.9

Video
ID                                       : 1
Format                                   : AVC
Format/Info                              : Advanced Video Codec
Format profile                           : [email protected]
Format settings                          : CABAC / 4 Ref Frames
Format settings, CABAC                   : Yes
Format settings, Reference frames        : 4 frames
Codec ID                                 : V_MPEG4/ISO/AVC
Duration                                 : 1 h 50 min
Bit rate                                 : 2 250 kb/s
Width                                    : 1 920 pixels
Height                                   : 800 pixels
Display aspect ratio                     : 2.40:1
Frame rate mode                          : Constant
Frame rate                               : 24.000 FPS
Color space                              : YUV
Chroma subsampling                       : 4:2:0
Bit depth                                : 8 bits
Scan type                                : Progressive
Bits/(Pixel*Frame)                       : 0.061
Stream size                              : 1.74 GiB (80%)
Title                                    : Korku Sokağı 2. Kısım: 1978 - Fear Street: 1978 - 2021  | Filmbol.org
Writing library                          : x264 core 161
Encoding settings                        : cabac=1 / ref=4 / deblock=1:-1:-1 / analyse=0x3:0x133 / me=umh / subme=9 / psy=1 / psy_rd=1.00:0.15 / mixed_ref=1 / me_range=24 / chroma_me=1 / trellis=2 / 8x8dct=1 / cqm=0 / deadzone=21,11 / fast_pskip=0 / chroma_qp_offset=-3 / threads=24 / lookahead_threads=2 / sliced_threads=0 / nr=0 / decimate=1 / interlaced=0 / bluray_compat=0 / constrained_intra=0 / bframes=3 / b_pyramid=2 / b_adapt=2 / b_bias=0 / direct=3 / weightb=1 / open_gop=0 / weightp=2 / keyint=250 / keyint_min=23 / scenecut=40 / intra_refresh=0 / rc_lookahead=60 / rc=2pass / mbtree=1 / bitrate=2250 / ratetol=1.0 / qcomp=0.60 / qpmin=0 / qpmax=69 / qpstep=4 / cplxblur=20.0 / qblur=0.5 / vbv_maxrate=31250 / vbv_bufsize=31250 / nal_hrd=none / filler=0 / ip_ratio=1.40 / aq=1:1.00
Default                                  : Yes
Forced                                   : No

Audio #1
ID                                       : 2
Format                                   : AC-3
Format/Info                              : Audio Coding 3
Commercial name                          : Dolby Digital
Codec ID                                 : A_AC3
Duration                                 : 1 h 50 min
Bit rate mode                            : Constant
Bit rate                                 : 384 kb/s
Channel(s)                               : 6 channels
Channel layout                           : L R C LFE Ls Rs
Sampling rate                            : 48.0 kHz
Frame rate                               : 31.250 FPS (1536 SPF)
Compression mode                         : Lossy
Stream size                              : 305 MiB (14%)
Title                                    : Korku Sokağı 2. Kısım: 1978 - Fear Street: 1978 - 2021  | Filmbol.org
Language                                 : Turkish
Service kind                             : Complete Main
Default                                  : Yes
Forced                                   : No

Audio #2
ID                                       : 3
Format                                   : AC-3
Format/Info                              : Audio Coding 3
Commercial name                          : Dolby Digital
Codec ID                                 : A_AC3
Duration                                 : 1 h 50 min
Bit rate mode                            : Constant
Bit rate                                 : 192 kb/s
Channel(s)                               : 2 channels
Channel layout                           : L R
Sampling rate                            : 48.0 kHz
Frame rate                               : 31.250 FPS (1536 SPF)
Compression mode                         : Lossy
Stream size                              : 152 MiB (7%)
Title                                    : Korku Sokağı 2. Kısım: 1978 - Fear Street: 1978 - 2021  | Filmbol.org
Language                                 : English
Service kind                             : Complete Main
Default                                  : No
Forced                                   : No

Text #1
ID                                       : 4
Format                                   : UTF-8
Codec ID                                 : S_TEXT/UTF8
Codec ID/Info                            : UTF-8 Plain Text
Duration                                 : 1 h 43 min
Bit rate                                 : 1 b/s
Count of elements                        : 36
Stream size                              : 932 Bytes (0%)
Title                                    : Korku Sokağı 2. Kısım: 1978 - Fear Street: 1978 - 2021  | Filmbol.org
Language                                 : Turkish
Default                                  : Yes
Forced                                   : Yes

Text #2
ID                                       : 5
Format                                   : UTF-8
Codec ID                                 : S_TEXT/UTF8
Codec ID/Info                            : UTF-8 Plain Text
Duration                                 : 1 h 49 min
Bit rate                                 : 47 b/s
Count of elements                        : 1366
Stream size                              : 38.1 KiB (0%)
Title                                    : Korku Sokağı 2. Kısım: 1978 - Fear Street: 1978 - 2021  | Filmbol.org
Language                                 : Turkish
Default                                  : No
Forced                                   : No

Film Detayları


 Korku Sokağı 2. Kısım: 1978

 Korku Sokağı 2. Kısım: 1978

 Korku Sokağı 2. Kısım: 1978


Film Fragmanı


Film Detayları



Zip Şifresi: filmbol.org Aşağıdaki butona tıklayarak kopyalabilirsiniz.


Uptobox ile indir

1Fichier ile indir

1Fichier'den İndiremiyor musun? Tıklayın!





Filmbol Cloud

Bunun için üzgünüz ancak, bu linke sadece premium üyeler erişebilir.




WWW
Şuan Offine!
Şuan Offine!
steelhand Uzman Üye
**
Uzman Üye
  • Konular0
  • Mesajlar6
  • Rep puanı 0
Çok teşekkürler...
Şuan Online!
Şuan Online!
TheSteeL Chief Executive Officer
******
CEO
(20-07-2021, Saat: 02:41)steelhand Adlı Kullanıcıdan Alıntı: Çok teşekkürler...
İyi Seyirler
Şuan Online!
Şuan Online!
Aspirin46 Süper Üye
***
Super Üye
  • Konular0
  • Mesajlar93
  • Rep puanı 0
süper
Şuan Online!
Şuan Online!
TheSteeL Chief Executive Officer
******
CEO
(26-07-2021, Saat: 15:17)Aspirin46 Adlı Kullanıcıdan Alıntı: süper
İyi Seyirler
Şuan Offine!
Şuan Offine!
LASTbrothers Yeni Üye
*
Üye
  • Konular0
  • Mesajlar14
  • Rep puanı 0
-Umarım ilki kadar iyidir. Paylaşım için teşekkürler..


Hızlı Menü: