Filmbol Forum Film İndir BRRip XviD v Sihirli Ejder (Wish Dragon) - 2021 - TR - BRRip XviD | tt5562070
Bildirimi Kapat
Merhaba , site giderlerini bir nebze olsun karşılamak adına link kısaltma servisleri kullanmaya başladık. İndirme linkleri sizi ouo.io adresinde yönlendirecek, 3 saniye geçtikten sonra Get Link butonuna tıklayarak linke ulaşacaksınız. Premium üyeler bu durumdan etkilenmeyecektir.


Premium Üyelik Al

Sihirli Ejder (Wish Dragon) - 2021 - TR - BRRip XviD | tt5562070
TheSteeL
Sihirli Ejder (Wish Dragon) - 2021 - TR - BRRip XviD | tt5562070
0
76
  • Derecelendirme: 0/5 - 0 oy
  • 1
  • 2
  • 3
  • 4
  • 5
Konuyu Okuyanlar:2 Ziyaretçi
Şuan Online!
Filmin Yayınlanma Tarihi: 2021 
Şuan Online!
TheSteeL Chief Executive Officer
******
CEO


 Sihirli Ejder



Zengin olmayan bir ailede dünyaya gelen Din'in babası bir işçidir. Üniversite öğrencisi olan Din'in hayatı pekte mükemmel değildir. Fakat o umudunu hiç bir zaman kaybetmez ve her zaman olumlu düşünmenin bir yolunu bulur. Sonunda ise bu iyilik meleği gibi tavırları ona çok büyük bir şans olarak döner. Din'in karşısına bir ejderha çıkmıştır. Bu ejderha etrafındaki herkese alevler püskürten bir ejderha değildir. Aksine sevimli ve onu bulan kişinin dileklerini yerine getirmeyi amaçlayan iyi kalpli bir ejderhadır. Din'in dileği ise fakir olmasına rağmen para değil, kayıp olan arkadaşını bulmaktır...

Sihirli Ejder (2021) (Wish Dragon) | tt5562070 Filmi Imdb'den 4000 kişi tarafından oylandı ve 7,2 puan aldı. Bu film için editör puanı %80 olarak belirlendi. İyi Seyirler!

Teknik Detaylar

Kod :
General
Unique ID                                : 334953708299064552205949852831460362057 (0xFBFDBCD893305DA5D10FFC216C2C0749)
Complete name                            : /home/TheSteel/Desktop/1/Sihirli.Ejder.2021.HDRip.XViD.TR.Filmbol.avi
Format                                   : Matroska
Format version                           : Version 4
File size                                : 1.19 GiB
Duration                                 : 1 h 42 min
Overall bit rate                         : 1 673 kb/s
Movie name                               : Wish Dragon - Sihirli Ejder  - 2021 | Filmbol.org
Encoded date                             : UTC 2021-06-14 17:10:14
Writing application                      : mkvmerge v31.0.0 ('Dolores In A Shoestand') 64-bit
Writing library                          : libebml v1.3.6 + libmatroska v1.4.9
FileExtension_Invalid                    : mkv mk3d mka mks

Video
ID                                       : 1
Format                                   : MPEG-4 Visual
Format profile                           : [email protected]
Format settings, BVOP                    : No
Format settings, QPel                    : No
Format settings, GMC                     : No warppoints
Format settings, Matrix                  : Default (H.263)
Codec ID                                 : V_MS/VFW/FOURCC / XVID
Codec ID/Hint                            : XviD
Duration                                 : 1 h 42 min
Bit rate                                 : 1 544 kb/s
Width                                    : 720 pixels
Height                                   : 388 pixels
Display aspect ratio                     : 1.85:1
Frame rate mode                          : Constant
Frame rate                               : 23.976 FPS
Color space                              : YUV
Chroma subsampling                       : 4:2:0
Bit depth                                : 8 bits
Scan type                                : Progressive
Compression mode                         : Lossy
Bits/(Pixel*Frame)                       : 0.230
Stream size                              : 1.10 GiB (92%)
Title                                    : Wish Dragon - Sihirli Ejder  - 2021 | Filmbol.org
Writing library                          : Lavc58.35.100
Default                                  : Yes
Forced                                   : No

Audio
ID                                       : 2
Format                                   : MPEG Audio
Format version                           : Version 1
Format profile                           : Layer 3
Format settings                          : Joint stereo / MS Stereo
Codec ID                                 : A_MPEG/L3
Codec ID/Hint                            : MP3
Duration                                 : 1 h 42 min
Bit rate mode                            : Constant
Bit rate                                 : 128 kb/s
Channel(s)                               : 2 channels
Sampling rate                            : 48.0 kHz
Frame rate                               : 41.667 FPS (1152 SPF)
Compression mode                         : Lossy
Stream size                              : 93.7 MiB (8%)
Title                                    : Wish Dragon - Sihirli Ejder  - 2021 | Filmbol.org
Language                                 : Turkish
Default                                  : Yes
Forced                                   : No

Film Detayları


 Sihirli Ejder

 Sihirli Ejder

 Sihirli Ejder


Film Fragmanı


Film Detayları



Zip Şifresi: filmbol.org Aşağıdaki butona tıklayarak kopyalabilirsiniz.



Uptobox ile indir

1Fichier ile indir

1Fichier'den İndiremiyor musun? Tıklayın!





Filmbol Cloud

Bunun için üzgünüz ancak, bu linke sadece premium üyeler erişebilir.




WWW


Hızlı Menü: