Filmbol Forum Film İndir FHD - FULL HD v Brightburn (Brightburn: Şeytanın Oğlu) - 2019 - TR+ORG - FHD - x264 | tt7752126
Bildirimi Kapat
Merhaba , site giderlerini bir nebze olsun karşılamak adına link kısaltma servisleri kullanmaya başladık. İndirme linkleri sizi ouo.io adresinde yönlendirecek, 3 saniye geçtikten sonra Get Link butonuna tıklayarak linke ulaşacaksınız. Premium üyeler bu durumdan etkilenmeyecektir.


Premium Üyelik Al

Brightburn (Brightburn: Şeytanın Oğlu) - 2019 - TR+ORG - FHD - x264 | tt7752126
BroserBros
Brightburn (Brightburn: Şeytanın Oğlu) - 2019 - TR+ORG - FHD - x264 | tt7752126
0
17
  • Derecelendirme: 0/5 - 0 oy
  • 1
  • 2
  • 3
  • 4
  • 5
Konuyu Okuyanlar:1 Ziyaretçi
Şuan Online!
Filmin Yayınlanma Tarihi: 2019 
Şuan Online!
BroserBros Kurucu Admin
*******
Admin


 Brightburn



Çizgi romanlar çağında yaşamak bizleri süper kahramanların var olması fikrine sıcak bakmaya itmekte. Dünyayı korumak, dünyalıları gözetmek ve adaleti sağlamak için kurgusal bir süper kahramanın ete kemiğe bürünerek aramızda yaşaması fikri pek çok kişi tarafından olumlu karşılanabilir. Bunun en önemli sebebi de, süper güçlü olan bu isimsiz kişinin, dünyayı koruma sorumluluğunu alacağına ve bozulmaz ahlak kuralları ile her zaman doğru tarafta yer alacağına dair çizgi roman dünyasının bizi ikna ettiği gerekçelerdir. Ancak ya tam tersi olursa? Ya gerçekten uzaydan düşen minik bir bebek bulunur ve çiftçi bir aile tarafından evlat edinilirse? Fakat kim olduğunu bilmese de farklı olduğunun bilincinde olan bu çocuk büyüdükçe bir kahramandan çok bir düşmana dönüşmeye başlarsa? Süper güçlü olanın karşımızda değil de yanımızda olacağı inancımızı paramparça eden bu senaryoda ne kadar güvende olabiliriz?… Kırsal hayatlarına gökten düşen bir bebeği dahil eden aile, zamanla büyükmekte oldukları çocuğun sandıklarından çok daha fazla kötülük ve güç barındırdığını keşfediyorlar. Ancak nereden geldiklerini bile bilmedikleri bu çocuğu durdurmanın yolu ne olacak

Brightburn (2019) (Brightburn: Şeytanın Oğlu) | tt7752126 Filmi Imdb'den 90,000 kişi tarafından oylandı ve 6,1 puan aldı. Bu film için editör puanı %78 olarak belirlendi. İyi Seyirler!

Teknik Detaylar

Kod :
General
Unique ID                                : 57886334204506074517763429307341802565 (0x2B8C80A002049CD9343297F1046F0C45)
Complete name                            : /home/BroserBros/Desktop/7/Brightburn.Şeytanın.Oğlu.2019.FHD.BluRay.x264.TR.ENG.Filmbol.mkv
Format                                   : Matroska
Format version                           : Version 4
File size                                : 3.33 GiB
Duration                                 : 1 h 30 min
Overall bit rate                         : 5 274 kb/s
Movie name                               : Brightburn: Şeytanın Oğlu - Brightburn - 2019 | Filmbol.org
Encoded date                             : UTC 2021-06-14 12:13:08
Writing application                      : mkvmerge v53.0.0 ('Fool's Gold') 64-bit
Writing library                          : libebml v1.4.1 + libmatroska v1.6.2

Video
ID                                       : 1
Format                                   : AVC
Format/Info                              : Advanced Video Codec
Format profile                           : [email protected]
Format settings                          : CABAC / 5 Ref Frames
Format settings, CABAC                   : Yes
Format settings, Reference frames        : 5 frames
Codec ID                                 : V_MPEG4/ISO/AVC
Duration                                 : 1 h 30 min
Bit rate                                 : 4 504 kb/s
Width                                    : 1 920 pixels
Height                                   : 796 pixels
Display aspect ratio                     : 2.40:1
Frame rate mode                          : Constant
Frame rate                               : 23.976 (24000/1001) FPS
Color space                              : YUV
Chroma subsampling                       : 4:2:0
Bit depth                                : 8 bits
Scan type                                : Progressive
Bits/(Pixel*Frame)                       : 0.123
Stream size                              : 2.85 GiB (85%)
Title                                    : FHD - Filmbol.org
Language                                 : English
Default                                  : Yes
Forced                                   : No
Color range                              : Limited
Color primaries                          : BT.709
Transfer characteristics                 : BT.709
Matrix coefficients                      : BT.709

Audio #1
ID                                       : 2
Format                                   : AC-3
Format/Info                              : Audio Coding 3
Commercial name                          : Dolby Digital
Codec ID                                 : A_AC3
Duration                                 : 1 h 30 min
Bit rate mode                            : Constant
Bit rate                                 : 384 kb/s
Channel(s)                               : 6 channels
Channel layout                           : L R C LFE Ls Rs
Sampling rate                            : 48.0 kHz
Frame rate                               : 31.250 FPS (1536 SPF)
Compression mode                         : Lossy
Stream size                              : 249 MiB (7%)
Title                                    : Türkçe - Filmbol.org
Language                                 : Turkish
Service kind                             : Complete Main
Default                                  : Yes
Forced                                   : Yes

Audio #2
ID                                       : 3
Format                                   : AC-3
Format/Info                              : Audio Coding 3
Commercial name                          : Dolby Digital
Codec ID                                 : A_AC3
Duration                                 : 1 h 30 min
Bit rate mode                            : Constant
Bit rate                                 : 384 kb/s
Channel(s)                               : 2 channels
Channel layout                           : L R
Sampling rate                            : 48.0 kHz
Frame rate                               : 31.250 FPS (1536 SPF)
Compression mode                         : Lossy
Stream size                              : 249 MiB (7%)
Title                                    : Orijinal Dil - Filmbol.org
Language                                 : English
Service kind                             : Complete Main
Default                                  : No
Forced                                   : No

Text
ID                                       : 4
Format                                   : UTF-8
Codec ID                                 : S_TEXT/UTF8
Codec ID/Info                            : UTF-8 Plain Text
Duration                                 : 1 h 24 min
Bit rate                                 : 41 b/s
Count of elements                        : 685
Stream size                              : 25.9 KiB (0%)
Title                                    : Türkçe - Filmbol.org
Language                                 : Turkish
Default                                  : No
Forced                                   : No

Film Detayları


 Brightburn

 Brightburn

 Brightburn


Film Fragmanı


Film Detayları



Zip Şifresi: filmbol.org Aşağıdaki butona tıklayarak kopyalabilirsiniz.





Filmbol Cloud

Bunun için üzgünüz ancak, bu linke sadece premium üyeler erişebilir.




WWW


Hızlı Menü: