Filmbol Forum Film İndir BRRip XviD v Xtreme (Xtremo) - 2021 - TR - BRRip XviD | tt11658120
Bildirimi Kapat
Merhaba , site giderlerini bir nebze olsun karşılamak adına link kısaltma servisleri kullanmaya başladık. İndirme linkleri sizi ouo.io adresinde yönlendirecek, 3 saniye geçtikten sonra Get Link butonuna tıklayarak linke ulaşacaksınız. Premium üyeler bu durumdan etkilenmeyecektir.


Premium Üyelik Al

Xtreme (Xtremo) - 2021 - TR - BRRip XviD | tt11658120
TheSteeL
Xtreme (Xtremo) - 2021 - TR - BRRip XviD | tt11658120
0
38
  • Derecelendirme: 0/5 - 0 oy
  • 1
  • 2
  • 3
  • 4
  • 5
Konuyu Okuyanlar:1 Ziyaretçi
Şuan Online!
Filmin Yayınlanma Tarihi: 2021 
Şuan Online!
TheSteeL Chief Executive Officer
******
CEO


 Xtreme



Max ihanete uğramış, emekli olmaya hazırlanan bir kiralık katildir. Onun ihanete uğratan şirket yada çalıştığı adamlar değildi. Kardeşi, güvende sorun yaşamadığı Lucero idi. Fakat Lucero onu sırtından vurup oğlunu ve babasını öldürünce, Max öyle bir intikam yemini eder ki, bu intikamı almak için gerekirse dünyayı ateşe verecek kadar büyük bir çıngı başlatır...

Xtreme (2021) (Xtremo) | tt11658120 Filmi Imdb'den 2000 kişi tarafından oylandı ve 5,7 puan aldı. Bu film için editör puanı %68 olarak belirlendi. İyi Seyirler!

Teknik Detaylar

Kod :
General
Unique ID                                : 14085212951577375633262664604376494544 (0xA98B69D6D699CCD7A89B42BA291F1D0)
Complete name                            : /home/TheSteel/Desktop/4/Xtreme.2021.HDRip.XViD.TR.Filmbol.avi
Format                                   : Matroska
Format version                           : Version 4
File size                                : 1.24 GiB
Duration                                 : 1 h 52 min
Overall bit rate                         : 1 577 kb/s
Movie name                               : Xtremo - Xtreme - 2021 | Filmbol.org
Encoded date                             : UTC 2021-06-08 12:16:31
Writing application                      : mkvmerge v31.0.0 ('Dolores In A Shoestand') 64-bit
Writing library                          : libebml v1.3.6 + libmatroska v1.4.9
FileExtension_Invalid                    : mkv mk3d mka mks

Video
ID                                       : 1
Format                                   : MPEG-4 Visual
Format profile                           : [email protected]
Format settings, BVOP                    : No
Format settings, QPel                    : No
Format settings, GMC                     : No warppoints
Format settings, Matrix                  : Default (H.263)
Codec ID                                 : V_MS/VFW/FOURCC / XVID
Codec ID/Hint                            : XviD
Duration                                 : 1 h 52 min
Bit rate                                 : 1 447 kb/s
Width                                    : 720 pixels
Height                                   : 300 pixels
Display aspect ratio                     : 2.40:1
Frame rate mode                          : Constant
Frame rate                               : 25.000 FPS
Color space                              : YUV
Chroma subsampling                       : 4:2:0
Bit depth                                : 8 bits
Scan type                                : Progressive
Compression mode                         : Lossy
Bits/(Pixel*Frame)                       : 0.268
Stream size                              : 1.14 GiB (92%)
Title                                    : Xtremo - Xtreme - 2021 | Filmbol.org
Writing library                          : Lavc58.35.100
Default                                  : Yes
Forced                                   : No

Audio
ID                                       : 2
Format                                   : MPEG Audio
Format version                           : Version 1
Format profile                           : Layer 3
Format settings                          : Joint stereo / MS Stereo
Codec ID                                 : A_MPEG/L3
Codec ID/Hint                            : MP3
Duration                                 : 1 h 52 min
Bit rate mode                            : Constant
Bit rate                                 : 128 kb/s
Channel(s)                               : 2 channels
Sampling rate                            : 48.0 kHz
Frame rate                               : 41.667 FPS (1152 SPF)
Compression mode                         : Lossy
Stream size                              : 103 MiB (8%)
Title                                    : Xtremo - Xtreme - 2021 | Filmbol.org
Default                                  : Yes
Forced                                   : No

Film Detayları


 Xtreme

 Xtreme

 Xtreme


Film Fragmanı


Film Detayları



Zip Şifresi: filmbol.org Aşağıdaki butona tıklayarak kopyalabilirsiniz.



Uptobox ile indir

1Fichier ile indir

1Fichier'den İndiremiyor musun? Tıklayın!





Filmbol Cloud

Bunun için üzgünüz ancak, bu linke sadece premium üyeler erişebilir.




WWW


Hızlı Menü: