Filmbol Forum Film İndir 720P v Sahil Güvenlik (Baywatch) - 2017 - TR+ORG - 720P | tt1469304
Bildirimi Kapat
Merhaba , site giderlerini bir nebze olsun karşılamak adına link kısaltma servisleri kullanmaya başladık. İndirme linkleri sizi ouo.io adresinde yönlendirecek, 3 saniye geçtikten sonra Get Link butonuna tıklayarak linke ulaşacaksınız. Premium üyeler bu durumdan etkilenmeyecektir.


Premium Üyelik Al

Sahil Güvenlik (Baywatch) - 2017 - TR+ORG - 720P | tt1469304
TheSteeL
Sahil Güvenlik (Baywatch) - 2017 - TR+ORG - 720P | tt1469304
0
44
  • Derecelendirme: 0/5 - 0 oy
  • 1
  • 2
  • 3
  • 4
  • 5
Konuyu Okuyanlar:1 Ziyaretçi
Şuan Online!
Filmin Yayınlanma Tarihi: 2017 
Şuan Online!
TheSteeL Chief Executive Officer
******
CEO


 Sahil Güvenlik



Mitch, hayattan büyük beklentileri olmayan ancak yaptığı işi severek yapan ve en iyi şekilde yapmaya çalışan bir cankurtarandır. İşini o kadar iyi yapmaktadır ki, bölgesinde çok sevilir hale gelmiş ve resmen kahraman ilan edilmiştir. Her şey yolunda giderken yanına bir cankurtaran daha atanmıştır. Üstelik bu cankurtaran çok dengesiz ve küstah birisidir. Bu durumda Mitch ondan asla hoşlanmıyor olsa da onunla mecburi olarak çalışma gereksinimi duyduğunda işine olan saygısından tüm yaşananları unutmak zorunda kalır...

Sahil Güvenlik (2017) (Baywatch) | tt1469304 Filmi Imdb'den 168000 kişi tarafından oylandı ve 5,5 puan aldı. Bu film için editör puanı %64 olarak belirlendi. İyi Seyirler!

Teknik Detaylar

Kod :
General
Unique ID                                : 293928002286669636302608990095366356718 (0xDD20795F42371BDFBE548B35DC82FEEE)
Complete name                            : /home/TheSteel/Desktop/7/Sahil.Güvenlik.2017.720p.BluRay.x264.TR.ENG.Filmbol.mkv
Format                                   : Matroska
Format version                           : Version 4
File size                                : 1.31 GiB
Duration                                 : 1 h 56 min
Overall bit rate                         : 1 610 kb/s
Movie name                               : Baywatch - Sahil Güvenlik - 2017 | Filmbol.org
Encoded date                             : UTC 2021-06-10 11:50:14
Writing application                      : mkvmerge v31.0.0 ('Dolores In A Shoestand') 64-bit
Writing library                          : libebml v1.3.6 + libmatroska v1.4.9

Video
ID                                       : 1
Format                                   : AVC
Format/Info                              : Advanced Video Codec
Format profile                           : [email protected]
Format settings                          : CABAC / 4 Ref Frames
Format settings, CABAC                   : Yes
Format settings, Reference frames        : 4 frames
Codec ID                                 : V_MPEG4/ISO/AVC
Duration                                 : 1 h 56 min
Bit rate                                 : 1 050 kb/s
Width                                    : 1 344 pixels
Height                                   : 562 pixels
Display aspect ratio                     : 2.40:1
Frame rate mode                          : Constant
Frame rate                               : 23.976 (24000/1001) FPS
Color space                              : YUV
Chroma subsampling                       : 4:2:0
Bit depth                                : 8 bits
Scan type                                : Progressive
Bits/(Pixel*Frame)                       : 0.058
Stream size                              : 860 MiB (64%)
Title                                    : 720P - Filmbol.org
Writing library                          : x264 core 157
Encoding settings                        : cabac=1 / ref=3 / deblock=1:0:0 / analyse=0x3:0x133 / me=hex / subme=7 / psy=1 / psy_rd=1.00:0.00 / mixed_ref=1 / me_range=16 / chroma_me=1 / trellis=1 / 8x8dct=1 / cqm=0 / deadzone=21,11 / fast_pskip=1 / chroma_qp_offset=-2 / threads=9 / lookahead_threads=1 / sliced_threads=0 / nr=0 / decimate=1 / interlaced=0 / bluray_compat=0 / constrained_intra=0 / bframes=3 / b_pyramid=2 / b_adapt=1 / b_bias=0 / direct=1 / weightb=1 / open_gop=0 / weightp=2 / keyint=250 / keyint_min=25 / scenecut=40 / intra_refresh=0 / rc_lookahead=40 / rc=abr / mbtree=1 / bitrate=1050 / ratetol=1.0 / qcomp=0.60 / qpmin=10 / qpmax=51 / qpstep=4 / ip_ratio=1.40 / aq=1:1.00
Default                                  : Yes
Forced                                   : No

Audio #1
ID                                       : 2
Format                                   : AC-3
Format/Info                              : Audio Coding 3
Commercial name                          : Dolby Digital
Codec ID                                 : A_AC3
Duration                                 : 1 h 56 min
Bit rate mode                            : Constant
Bit rate                                 : 384 kb/s
Channel(s)                               : 6 channels
Channel layout                           : L R C LFE Ls Rs
Sampling rate                            : 48.0 kHz
Frame rate                               : 31.250 FPS (1536 SPF)
Compression mode                         : Lossy
Delay relative to video                  : -166 ms
Stream size                              : 320 MiB (24%)
Title                                    : Baywatch - Sahil Güvenlik - 2017 | Filmbol.org
Language                                 : Turkish
Service kind                             : Complete Main
Default                                  : Yes
Forced                                   : No

Audio #2
ID                                       : 3
Format                                   : AC-3
Format/Info                              : Audio Coding 3
Commercial name                          : Dolby Digital
Codec ID                                 : A_AC3
Duration                                 : 1 h 56 min
Bit rate mode                            : Constant
Bit rate                                 : 192 kb/s
Channel(s)                               : 2 channels
Channel layout                           : L R
Sampling rate                            : 48.0 kHz
Frame rate                               : 31.250 FPS (1536 SPF)
Compression mode                         : Lossy
Delay relative to video                  : -166 ms
Stream size                              : 160 MiB (12%)
Title                                    : Baywatch - Sahil Güvenlik - 2017 | Filmbol.org
Language                                 : English
Service kind                             : Complete Main
Default                                  : No
Forced                                   : No

Text #1
ID                                       : 4
Format                                   : UTF-8
Codec ID                                 : S_TEXT/UTF8
Codec ID/Info                            : UTF-8 Plain Text
Duration                                 : 1 h 54 min
Bit rate                                 : 0 b/s
Count of elements                        : 12
Stream size                              : 327 Bytes (0%)
Title                                    : Baywatch - Sahil Güvenlik - 2017 | Filmbol.org
Language                                 : Turkish
Default                                  : Yes
Forced                                   : No

Text #2
ID                                       : 5
Format                                   : UTF-8
Codec ID                                 : S_TEXT/UTF8
Codec ID/Info                            : UTF-8 Plain Text
Duration                                 : 1 h 55 min
Bit rate                                 : 68 b/s
Count of elements                        : 1648
Stream size                              : 58.1 KiB (0%)
Title                                    : Baywatch - Sahil Güvenlik - 2017 | Filmbol.org
Language                                 : Turkish
Default                                  : No
Forced                                   : No

Film Detayları


 Sahil Güvenlik

 Sahil Güvenlik

 Sahil Güvenlik


Film Fragmanı


Film Detayları



Zip Şifresi: filmbol.org Aşağıdaki butona tıklayarak kopyalabilirsiniz.


Uptobox ile indir

1Fichier ile indir

1Fichier'den İndiremiyor musun? Tıklayın!





Filmbol Cloud

Bunun için üzgünüz ancak, bu linke sadece premium üyeler erişebilir.




WWW


Hızlı Menü: