Filmbol Forum Film İndir FHD - FULL HD v Sır Tutabilir Misin? (Can You Keep a Secret?) - 2019 - TR+ORG - FHD - x264 | tt8707922
Bildirimi Kapat
Merhaba , site giderlerini bir nebze olsun karşılamak adına link kısaltma servisleri kullanmaya başladık. İndirme linkleri sizi ouo.io adresinde yönlendirecek, 3 saniye geçtikten sonra Get Link butonuna tıklayarak linke ulaşacaksınız. Premium üyeler bu durumdan etkilenmeyecektir.


Premium Üyelik Al

Sır Tutabilir Misin? (Can You Keep a Secret?) - 2019 - TR+ORG - FHD - x264 | tt8707922
BroserBros
Sır Tutabilir Misin? (Can You Keep a Secret?) - 2019 - TR+ORG - FHD - x264 | tt8707922
0
19
  • Derecelendirme: 0/5 - 0 oy
  • 1
  • 2
  • 3
  • 4
  • 5
Konuyu Okuyanlar:2 Ziyaretçi
Şuan Online!
Filmin Yayınlanma Tarihi: 2019 
Şuan Online!
BroserBros Kurucu Admin
*******
Admin


 Sır Tutabilir Misin?



Sır Tutabilir Misin?, uçağın düşeceğini zannedip yanında oturan adam tüm sırlarını döken genç bir kadının başına gelenleri konu ediyor. Genç bir kadın olan Emma’nın uçak korkusu vardır ve bir iş seyahatinden döndüğü sırada büyük bir paniğe kapılır. Uçakta yaşanan hafif sarsıntılar sonucu uçağın düşmek üzere olduğunu düşünen Emma, ölmeden önce kendisine sakladığı sırları paylaşmak ister. Son anlarını yaşadığını düşünen Emma, yanında bulunan adamın bir yabancı olduğunu düşünerek ona en özel sırlarını anlatır. Ancak tüm sırlarını anlattığı adam aslında ona pek de yabancı değildir. Genç kadın işe gittiğinde tüm sırlarını döktüğü adamı karşısında görünce oldukça şaşırır. Hayatına dair birçok şey bilen adamın şirketinin genç CEO’su Jack olduğunu öğrenen Emma için artık hiçbir şey eskisi gibi olmayacaktır.

Sır Tutabilir Misin? (2019) (Can You Keep a Secret?) | tt8707922 Filmi Imdb'den 12,000 kişi tarafından oylandı ve 5,3 puan aldı. Bu film için editör puanı %59 olarak belirlendi. İyi Seyirler!

Teknik Detaylar

Kod :
General
Unique ID                                : 13844115351661602281372755784407978160 (0xA6A4795E48A37E387C487FF03A010B0)
Complete name                            : /home/BroserBros/Desktop/7/Sır.Tutabilir.Misin.2019.FHD.BluRay.x264.TR.ENG.Filmbol.mkv
Format                                   : Matroska
Format version                           : Version 4
File size                                : 6.81 GiB
Duration                                 : 1 h 34 min
Overall bit rate                         : 10.3 Mb/s
Movie name                               : Sır Tutabilir Misin? - Can You Keep a Secret? - 2019 | Filmbol.org
Encoded date                             : UTC 2021-06-11 10:53:41
Writing application                      : mkvmerge v53.0.0 ('Fool's Gold') 64-bit
Writing library                          : libebml v1.4.1 + libmatroska v1.6.2

Video
ID                                       : 1
Format                                   : AVC
Format/Info                              : Advanced Video Codec
Format profile                           : [email protected]
Format settings                          : CABAC / 4 Ref Frames
Format settings, CABAC                   : Yes
Format settings, Reference frames        : 4 frames
Codec ID                                 : V_MPEG4/ISO/AVC
Duration                                 : 1 h 34 min
Bit rate                                 : 10.1 Mb/s
Width                                    : 1 920 pixels
Height                                   : 1 040 pixels
Display aspect ratio                     : 1.85:1
Frame rate mode                          : Constant
Frame rate                               : 24.000 FPS
Color space                              : YUV
Chroma subsampling                       : 4:2:0
Bit depth                                : 8 bits
Scan type                                : Progressive
Bits/(Pixel*Frame)                       : 0.210
Stream size                              : 6.64 GiB (97%)
Title                                    : FHD - Filmbol.org
Writing library                          : x264 core 158 r2988 7817004
Encoding settings                        : cabac=1 / ref=4 / deblock=1:0:0 / analyse=0x3:0x113 / me=umh / subme=8 / psy=1 / psy_rd=1.00:0.00 / mixed_ref=1 / me_range=16 / chroma_me=1 / trellis=2 / 8x8dct=1 / cqm=0 / deadzone=21,11 / fast_pskip=0 / chroma_qp_offset=-2 / threads=12 / lookahead_threads=2 / sliced_threads=0 / nr=0 / decimate=1 / interlaced=0 / bluray_compat=0 / constrained_intra=0 / bframes=3 / b_pyramid=2 / b_adapt=1 / b_bias=0 / direct=1 / weightb=1 / open_gop=0 / weightp=2 / keyint=250 / keyint_min=24 / scenecut=40 / intra_refresh=0 / rc_lookahead=50 / rc=2pass / mbtree=1 / bitrate=10070 / ratetol=1.0 / qcomp=0.60 / qpmin=0 / qpmax=69 / qpstep=4 / cplxblur=20.0 / qblur=0.5 / ip_ratio=1.40 / aq=1:1.00
Default                                  : Yes
Forced                                   : No

Audio #1
ID                                       : 2
Format                                   : AC-3
Format/Info                              : Audio Coding 3
Commercial name                          : Dolby Digital
Codec ID                                 : A_AC3
Duration                                 : 1 h 34 min
Bit rate mode                            : Constant
Bit rate                                 : 192 kb/s
Channel(s)                               : 2 channels
Channel layout                           : L R
Sampling rate                            : 48.0 kHz
Frame rate                               : 31.250 FPS (1536 SPF)
Compression mode                         : Lossy
Stream size                              : 130 MiB (2%)
Title                                    : Türkçe - Filmbol.org
Language                                 : Turkish
Service kind                             : Complete Main
Default                                  : Yes
Forced                                   : Yes

Audio #2
ID                                       : 3
Format                                   : AAC LC SBR
Format/Info                              : Advanced Audio Codec Low Complexity with Spectral Band Replication
Commercial name                          : HE-AAC
Format settings                          : Explicit
Codec ID                                 : A_AAC-2
Duration                                 : 1 h 34 min
Bit rate                                 : 64.0 kb/s
Channel(s)                               : 2 channels
Channel layout                           : L R
Sampling rate                            : 48.0 kHz
Frame rate                               : 23.438 FPS (2048 SPF)
Compression mode                         : Lossy
Stream size                              : 43.2 MiB (1%)
Title                                    : Orijinal Dil - Filmbol.org
Language                                 : English
Default                                  : No
Forced                                   : No

Text
ID                                       : 4
Format                                   : UTF-8
Codec ID                                 : S_TEXT/UTF8
Codec ID/Info                            : UTF-8 Plain Text
Duration                                 : 1 h 29 min
Bit rate                                 : 72 b/s
Count of elements                        : 1341
Stream size                              : 47.3 KiB (0%)
Title                                    : Türkçe - Filmbol.org
Language                                 : Turkish
Default                                  : No
Forced                                   : No

Film Detayları


 Sır Tutabilir Misin?

 Sır Tutabilir Misin?

 Sır Tutabilir Misin?


Film Fragmanı


Film Detayları



Zip Şifresi: filmbol.org Aşağıdaki butona tıklayarak kopyalabilirsiniz.





Filmbol Cloud

Bunun için üzgünüz ancak, bu linke sadece premium üyeler erişebilir.




WWW


Hızlı Menü: