Filmbol Forum Film İndir BRRip XviD v Smosh: Film (Smosh: The Movie) Türkçe Dublaj Brrip-Xvid İndir
Mega linklerinin şikayet edilmemesi için global erişime kapatıp sadece yorum yapanlara açıyoruz. Bu linkleri gizleme işlemini mecburen yapıyoruz ve yorum yapmanızın siteye değil size faydası vardır. Teşekürler yazmayı çok görüp, Random/Spam mesajlar atarak Mega linklerini açmaya çalışan kullanıcılara önce süresiz ban, devam ederse IP ban atacağız.
Filmbol'da moderatör olmak ister misiniz? Bizimle iletişime geçmek için tıklayın!
Smosh: Film (Smosh: The Movie) Türkçe Dublaj Brrip-Xvid İndir
BroserBros
Smosh: Film (Smosh: The Movie) Türkçe Dublaj Brrip-Xvid İndir
0
839
  • Derecelendirme: 0/5 - 0 oy
  • 1
  • 2
  • 3
  • 4
  • 5
Konuyu Okuyanlar:1 Ziyaretçi
Şuan Online!
Filmin Yayınlanma Tarihi: 2015 
WWW
Şuan Online!
BroserBros Kurucu Admin
*******
Admin





rarsifresi


filmbol.org





Teknik Detaylar
Kod :
General
Format                                   : AVI
Format/Info                              : Audio Video Interleave
File size                                : 938 MiB
Duration                                 : 1h 23mn
Overall bit rate                         : 1 575 Kbps

Video
ID                                       : 0
Format                                   : MPEG-4 Visual
Format profile                           : [email protected]
Format settings, BVOP                    : No
Format settings, QPel                    : No
Format settings, GMC                     : No warppoints
Format settings, Matrix                  : Default (H.263)
Codec ID                                 : FMP4
Duration                                 : 1h 23mn
Bit rate                                 : 1 437 Kbps
Width                                    : 712 pixels
Height                                   : 400 pixels
Display aspect ratio                     : 16:9
Frame rate                               : 23.976 fps
Color space                              : YUV
Chroma subsampling                       : 4:2:0
Bit depth                                : 8 bits
Scan type                                : Progressive
Compression mode                         : Lossy
Bits/(Pixel*Frame)                       : 0.210
Stream size                              : 856 MiB (91%)
Writing library                          : Lavc56.41.100

Audio
ID                                       : 1
Format                                   : MPEG Audio
Format version                           : Version 1
Format profile                           : Layer 3
Mode                                     : Joint stereo
Codec ID                                 : 55
Codec ID/Hint                            : MP3
Duration                                 : 1h 23mn
Source duration                          : 1h 23mn
Bit rate mode                            : Constant
Bit rate                                 : 128 Kbps
Channel(s)                               : 2 channels
Sampling rate                            : 48.0 KHz
Compression mode                         : Lossy
Stream size                              : 76.2 MiB (8%)
Alignment                                : Aligned on interleaves
Interleave, duration                     : 42 ms (1.00 video frame)



Film Detayları


Smosh

Smosh

Smosh

Smosh

Smosh


Film Fragmanı


Film Detayları

Brrip İndir


Mega linki şuan da gizli. Kullanıma açmak için konuya yorum yapın ve ardından sayfayı yenileyin.

Mega


Uptobox ile indir

CloudRu ile indir



Hızlı Menü: