Filmbol Forum Film İndir BRRip XviD v Açlık Oyunları (The Hunger Games) - 2012 - TR - BRRip XviD | tt1392170

Premium Üyelik Al

Bildirimi Kapat
Mega linklerinin şikayet edilmemesi için global erişime kapatıp sadece yorum yapanlara açıyoruz. Bu linkleri gizleme işlemini mecburen yapıyoruz ve yorum yapmanızın siteye değil size faydası vardır. Teşekkürler yazmayı çok görüp, Random/Spam/Anlamsız mesajlar atarak forumu kirletip Mega linklerini açmaya çalışan kullanıcılara süresiz ban atacağız.


Açlık Oyunları (The Hunger Games) - 2012 - TR - BRRip XviD | tt1392170
TheSteeL
Açlık Oyunları (The Hunger Games) - 2012 - TR - BRRip XviD | tt1392170
0
20
  • Derecelendirme: 0/5 - 0 oy
  • 1
  • 2
  • 3
  • 4
  • 5
Konuyu Okuyanlar:1 Ziyaretçi
Şuan Online!
Filmin Yayınlanma Tarihi: 2012 
WWW
Şuan Online!
TheSteeL Süper Moderatör
*****
Süper Moderatör



 Açlık Oyunları



Dünya düzeni tamamen bozulmuş, zengin ve fakir arasındaki fark tamamen açılmıştır. Bunun sonucunda zenginler yediklerini kusup tekrar yerken, fakirler ise gıda bulmakta güçlük çekmektedir. Yeni dünya düzeninin baş ülkesi olan Panem ise, her yıl zenginler için Açlık Oyunları isminde oyun düzenler. Bu oyun Roma döneminde yer alan Gladyatör oyunlarının çok gelişmiş bir versiyonudur. Fakir halktan seçilen kişiler arasında düzenlenen oyunda 24 farklı yarışmacı hiç kimsenin giremeyeceği ve bulamayacağı bir ormanda hapsedilir. Burada kazanabilen tek bir kişi çıkacaktır. Bu yüzden yarışmacılar ya ölmeli ya da öldürmelidir...

Açlık Oyunları (2012) (The Hunger Games) | tt1392170 Filmi Imdb'den 857000 kişi tarafından oylandı ve 7,2 puan aldı. Bu film için editör puanı %80 olarak belirlendi. İyi Seyirler!

Teknik Detaylar

Kod :
General
Unique ID                                : 278708549382738682001671057007957847297 (0xD1AD5068F1438BD6C96494F167012D01)
Complete name                            : /home/TheSteel/Desktop/asd/Açlık.Oyunları.2012.BRRip.Xvid.TR.Filmbol.avi
Format                                   : Matroska
Format version                           : Version 4
File size                                : 1.36 GiB
Duration                                 : 2 h 22 min
Overall bit rate                         : 1 368 kb/s
Encoded date                             : UTC 2021-05-25 09:39:36
Writing application                      : mkvmerge v31.0.0 ('Dolores In A Shoestand') 64-bit
Writing library                          : libebml v1.3.6 + libmatroska v1.4.9
FileExtension_Invalid                    : mkv mk3d mka mks

Video
ID                                       : 1
Format                                   : MPEG-4 Visual
Format profile                           : Advanced [email protected]
Format settings                          : BVOP2 / Custom Matrix
Format settings, BVOP                    : 2
Format settings, QPel                    : No
Format settings, GMC                     : No warppoints
Format settings, Matrix                  : Custom
Muxing mode                              : Packed bitstream
Codec ID                                 : V_MS/VFW/FOURCC / XVID
Codec ID/Hint                            : XviD
Duration                                 : 2 h 22 min
Bit rate                                 : 1 239 kb/s
Width                                    : 640 pixels
Height                                   : 272 pixels
Display aspect ratio                     : 2.35:1
Frame rate mode                          : Variable
Frame rate                               : 23.940 FPS
Original frame rate                      : 23.976 FPS
Color space                              : YUV
Chroma subsampling                       : 4:2:0
Bit depth                                : 8 bits
Scan type                                : Progressive
Compression mode                         : Lossy
Bits/(Pixel*Frame)                       : 0.297
Stream size                              : 1.24 GiB (91%)
Title                                    : Filmbol.org
Writing library                          : XviD 1.1.2 (UTC 2006-11-01)
Default                                  : Yes
Forced                                   : No

Audio
ID                                       : 2
Format                                   : MPEG Audio
Format version                           : Version 1
Format profile                           : Layer 3
Format settings                          : Joint stereo / MS Stereo
Codec ID                                 : A_MPEG/L3
Codec ID/Hint                            : MP3
Duration                                 : 2 h 22 min
Bit rate mode                            : Constant
Bit rate                                 : 128 kb/s
Channel(s)                               : 2 channels
Sampling rate                            : 48.0 kHz
Frame rate                               : 41.667 FPS (1152 SPF)
Compression mode                         : Lossy
Stream size                              : 131 MiB (9%)
Title                                    : Türkçe - Filmbol.org
Writing library                          : LAME3.98.4
Default                                  : Yes
Forced                                   : No

Film Detayları


 Açlık Oyunları

 Açlık Oyunları

 Açlık Oyunları


Film Fragmanı


Film Detayları


Uptobox ile indir

1Fichier ile indir

1Fichier'den İndiremiyor musun? Tıklayın!


Mega linki şuan da gizli. Kullanıma açmak için konuya yorum yapın ve ardından sayfayı yenileyin.

Mega


Bunun için üzgünüz ancak, bu linke sadece premium üyeler erişebilir.

Filmbol Cloud







Hızlı Menü: