Filmbol Forum Film İndir BRRip XviD v U.S.S Indianapolis: Cesur Adamlar (Men of Courage) Türkçe Dublaj Brrip-Xvid İndir
Mega linklerinin şikayet edilmemesi için global erişime kapatıp sadece yorum yapanlara açıyoruz. Bu linkleri gizleme işlemini mecburen yapıyoruz ve yorum yapmanızın siteye değil size faydası vardır. Teşekürler yazmayı çok görüp, Random/Spam mesajlar atarak Mega linklerini açmaya çalışan kullanıcılara önce süresiz ban, devam ederse IP ban atacağız.
Filmbol'da moderatör olmak ister misiniz? Bizimle iletişime geçmek için tıklayın!
U.S.S Indianapolis: Cesur Adamlar (Men of Courage) Türkçe Dublaj Brrip-Xvid İndir
BroserBros
U.S.S Indianapolis: Cesur Adamlar (Men of Courage) Türkçe Dublaj Brrip-Xvid İndir
0
1251
  • Derecelendirme: 0/5 - 0 oy
  • 1
  • 2
  • 3
  • 4
  • 5
Konuyu Okuyanlar:1 Ziyaretçi
Şuan Online!
Filmin Yayınlanma Tarihi: 2016 
WWW
Şuan Online!
BroserBros Kurucu Admin
*******
Admin





rarsifresi


filmbol.org




Teknik Detaylar
Kod :
General
Format                                   : AVI
Format/Info                              : Audio Video Interleave
File size                                : 1.17 GiB
Duration                                 : 2h 4mn
Overall bit rate                         : 1 349 Kbps

Video
ID                                       : 0
Format                                   : MPEG-4 Visual
Format profile                           : [email protected]
Format settings, BVOP                    : No
Format settings, QPel                    : No
Format settings, GMC                     : No warppoints
Format settings, Matrix                  : Default (H.263)
Codec ID                                 : FMP4
Duration                                 : 2h 4mn
Bit rate                                 : 1 212 Kbps
Width                                    : 720 pixels
Height                                   : 300 pixels
Display aspect ratio                     : 2.40:1
Frame rate                               : 25.000 fps
Color space                              : YUV
Chroma subsampling                       : 4:2:0
Bit depth                                : 8 bits
Scan type                                : Progressive
Compression mode                         : Lossy
Bits/(Pixel*Frame)                       : 0.224
Stream size                              : 1.05 GiB (90%)
Writing library                          : Lavc56.41.100

Audio
ID                                       : 1
Format                                   : MPEG Audio
Format version                           : Version 1
Format profile                           : Layer 3
Mode                                     : Joint stereo
Mode extension                           : MS Stereo
Codec ID                                 : 55
Codec ID/Hint                            : MP3
Duration                                 : 2h 4mn
Source duration                          : 2h 4mn
Bit rate mode                            : Constant
Bit rate                                 : 128 Kbps
Channel(s)                               : 2 channels
Sampling rate                            : 48.0 KHz
Compression mode                         : Lossy
Stream size                              : 114 MiB (9%)
Alignment                                : Aligned on interleaves
Interleave, duration                     : 40 ms (1.00 video frame)



Film Detayları


Cesur Adamlar

Cesur Adamlar

Cesur Adamlar

Cesur Adamlar

Cesur Adamlar


Film Fragmanı


Film Detayları

Brrip İndir


Mega linki şuan da gizli. Kullanıma açmak için konuya yorum yapın ve ardından sayfayı yenileyin.

Mega


Uptobox ile indir

CloudRu ile indir



Konu ile Alakalı Benzer Konular
Konular Yazar Yorumlar Okunma Son Yorum
Filmin Yayınlanma Tarihi: 2018
Han Solo: Bir Star Wars Hikâyesi (Solo: A Star Wars Story) - 2018 - TR - BRRip XviD | tt3778644 BroserBros 2 438 1 saat önce
Son Yorum: Furkan61
Filmin Yayınlanma Tarihi: 2015
Yıldız Savaşları 7: Güç Uyanıyor (Star Wars: Episode VII - The Force Awakens) - 2015 - TR - BRRip XviD | tt2488496 BroserBros 8 2,184 1 saat önce
Son Yorum: Furkan61
Filmin Yayınlanma Tarihi: 1983
Yıldız Savaşları 6: Jedi'ın Dönüşü (Star Wars: Episode VI - Return of the Jedi) - 1983 - TR - BRRip XviD | tt0086190 BroserBros 8 1,785 1 saat önce
Son Yorum: Furkan61
Filmin Yayınlanma Tarihi: 1980
Yıldız Savaşları 5: İmparator (Star Wars: Episode V - The Empire Strikes Back) - 1980 - TR - BRRip XviD | tt0080684 BroserBros 6 1,779 1 saat önce
Son Yorum: Furkan61
Filmin Yayınlanma Tarihi: 2011
Transformers: Ay'ın Karanlık Yüzü (Transformers: Dark of the Moon) - 2011 - TR - BRRip XviD | tt1399103 TheSteeL 2 14 8 saat önce
Son Yorum: TheSteeL

Hızlı Menü: