Filmbol Forum Film İndir 1080P v Extinction (İnsanlığın Sonu) - 2015 - TR+ORG - 1080P | tt3467412

Premium Üyelik Al

Bildirimi Kapat
Mega linklerinin şikayet edilmemesi için global erişime kapatıp sadece yorum yapanlara açıyoruz. Bu linkleri gizleme işlemini mecburen yapıyoruz ve yorum yapmanızın siteye değil size faydası vardır. Teşekkürler yazmayı çok görüp, Random/Spam/Anlamsız mesajlar atarak forumu kirletip Mega linklerini açmaya çalışan kullanıcılara süresiz ban atacağız.


Extinction (İnsanlığın Sonu) - 2015 - TR+ORG - 1080P | tt3467412
TheSteeL
Extinction (İnsanlığın Sonu) - 2015 - TR+ORG - 1080P | tt3467412
4
147
  • Derecelendirme: 0/5 - 0 oy
  • 1
  • 2
  • 3
  • 4
  • 5
Konuyu Okuyanlar:1 Ziyaretçi
Şuan Online!
Filmin Yayınlanma Tarihi: 2015 
WWW
Şuan Online!
TheSteeL Süper Moderatör
*****
Süper Moderatör



 Extinction



İran nükleer silah çalışmalarına hız kazandırmış ve dünya için ciddi bir tehdit haline gelmiştir. Tabii bunun yanında ABD'de nükleer silah konusunda bir numaradır ve başka herhangi birinin nükleer silah bulundurmasına karşı çıkmaktadır. Bu durumun adil olmadığına inanan Çin ve Rusya İran'ı destekler ve 3. Dünya savaşı alevlenir. Nükleer silahlar havada uçuşur ve dünya nüfusu hızlı bir şekilde düşer. Üstelik nükleer atıkların bıraktığı artıklar insanlıkta büyük bir şey değiştirir ve insan DNA'sı değişerek yeniden şekillenir...

Extinction (2015) (Extinction) | tt3467412 Filmi Imdb'den 17000 kişi tarafından oylandı ve 5,9 puan aldı. Bu film için editör puanı %63 olarak belirlendi. İyi Seyirler!

Teknik Detaylar

Kod :
General
Unique ID                                : 231536870009150433081949223469382172666 (0xAE30610DE11BCC3664595012DA40FFFA)
Complete name                            : /home/TheSteel/Desktop/2/İnsanlığın.Sonu.2015.1080p.BluRay.x264.TR.ENG.Filmbol.mkv
Format                                   : Matroska
Format version                           : Version 4
File size                                : 1.98 GiB
Duration                                 : 1 h 52 min
Overall bit rate                         : 2 505 kb/s
Movie name                               : İnsanlığın Sonu - Extinction - 2015 | Filmbol.org
Encoded date                             : UTC 2021-04-15 12:13:34
Writing application                      : mkvmerge v31.0.0 ('Dolores In A Shoestand') 64-bit
Writing library                          : libebml v1.3.6 + libmatroska v1.4.9

Video
ID                                       : 1
Format                                   : AVC
Format/Info                              : Advanced Video Codec
Format profile                           : [email protected]
Format settings                          : CABAC / 4 Ref Frames
Format settings, CABAC                   : Yes
Format settings, Reference frames        : 4 frames
Codec ID                                 : V_MPEG4/ISO/AVC
Duration                                 : 1 h 52 min
Bit rate                                 : 2 250 kb/s
Width                                    : 1 920 pixels
Height                                   : 808 pixels
Display aspect ratio                     : 2.40:1
Frame rate mode                          : Constant
Frame rate                               : 24.000 FPS
Color space                              : YUV
Chroma subsampling                       : 4:2:0
Bit depth                                : 8 bits
Scan type                                : Progressive
Bits/(Pixel*Frame)                       : 0.060
Stream size                              : 1.73 GiB (88%)
Title                                    : 1080P - Filmbol.org
Writing library                          : x264 core 142 r2479 dd79a61
Encoding settings                        : cabac=1 / ref=4 / deblock=1:-1:-1 / analyse=0x3:0x133 / me=umh / subme=9 / psy=1 / psy_rd=1.00:0.15 / mixed_ref=1 / me_range=24 / chroma_me=1 / trellis=2 / 8x8dct=1 / cqm=0 / deadzone=21,11 / fast_pskip=0 / chroma_qp_offset=-3 / threads=12 / lookahead_threads=1 / sliced_threads=0 / nr=0 / decimate=1 / interlaced=0 / bluray_compat=0 / constrained_intra=0 / bframes=3 / b_pyramid=2 / b_adapt=2 / b_bias=0 / direct=3 / weightb=1 / open_gop=0 / weightp=2 / keyint=240 / keyint_min=24 / scenecut=40 / intra_refresh=0 / rc_lookahead=60 / rc=abr / mbtree=1 / bitrate=2250 / ratetol=1.0 / qcomp=0.60 / qpmin=0 / qpmax=69 / qpstep=4 / ip_ratio=1.40 / aq=1:1.00
Default                                  : Yes
Forced                                   : No
Color range                              : Limited
Color primaries                          : BT.709
Transfer characteristics                 : BT.709
Matrix coefficients                      : BT.709

Audio #1
ID                                       : 2
Format                                   : AAC LC
Format/Info                              : Advanced Audio Codec Low Complexity
Codec ID                                 : A_AAC-2
Duration                                 : 1 h 42 min
Bit rate                                 : 129 kb/s
Channel(s)                               : 2 channels
Channel layout                           : L R
Sampling rate                            : 32.0 kHz
Frame rate                               : 31.250 FPS (1024 SPF)
Compression mode                         : Lossy
Stream size                              : 93.9 MiB (5%)
Title                                    : Türkçe - Filmbol.org
Default                                  : Yes
Forced                                   : No

Audio #2
ID                                       : 3
Format                                   : AAC LC
Format/Info                              : Advanced Audio Codec Low Complexity
Codec ID                                 : A_AAC-2
Duration                                 : 1 h 52 min
Bit rate                                 : 192 kb/s
Channel(s)                               : 6 channels
Channel layout                           : C L R Ls Rs LFE
Sampling rate                            : 48.0 kHz
Frame rate                               : 46.875 FPS (1024 SPF)
Compression mode                         : Lossy
Stream size                              : 155 MiB (8%)
Title                                    : Orjinal Dil - Filmbol.org
Language                                 : English
Default                                  : No
Forced                                   : No

Text
ID                                       : 4
Format                                   : UTF-8
Codec ID                                 : S_TEXT/UTF8
Codec ID/Info                            : UTF-8 Plain Text
Duration                                 : 1 h 46 min
Bit rate                                 : 30 b/s
Count of elements                        : 745
Stream size                              : 23.9 KiB (0%)
Title                                    : Türkçe - Filmbol.org
Language                                 : Turkish
Default                                  : No
Forced                                   : No

Film Detayları


 Extinction

 Extinction

 Extinction


Film Fragmanı


Film Detayları

Uptobox ile indir

1Fichier ile indir

1Fichier'den İndiremiyor musun? Tıklayın!


Mega linki şuan da gizli. Kullanıma açmak için konuya yorum yapın ve ardından sayfayı yenileyin.

Mega


Bunun için üzgünüz ancak, bu linke sadece premium üyeler erişebilir.

Filmbol Cloud





Şuan Offine!
Şuan Offine!
Ugur_1988 Premium Üye
****

  • Konular11
  • Mesajlar100
  • Rep puanı 23
Hocam uzun süredir bu filmin m1080p  ve HD arıyordum payşatığınız için teşekkürler.
Şuan Online!
Şuan Online!
TheSteeL Süper Moderatör
*****
Süper Moderatör

(15-04-2021, Saat: 20:40)Ugur_1988 Adlı Kullanıcıdan Alıntı: Hocam uzun süredir bu filmin m1080p  ve HD arıyordum payşatığınız için teşekkürler.
İyi Seyirler
Şuan Offine!
Şuan Offine!
azdeveloper Uzman Üye
**
Uzman Üye

  • Konular0
  • Mesajlar8
  • Rep puanı 0
cok tesekkur ederim
Şuan Online!
Şuan Online!
TheSteeL Süper Moderatör
*****
Süper Moderatör

(25-04-2021, Saat: 14:36)azdeveloper Adlı Kullanıcıdan Alıntı: cok tesekkur ederim
İyi Seyirler


Hızlı Menü: