Filmbol Forum Film İndir 1080P v Sen Hiç Ateşböceği Gördün mü? (Sen Hiç Atesböcegi Gördün mü?) - 2021 - TR+ORG - 1080P | tt13317694

Premium Üyelik Al

Bildirimi Kapat
Mega linklerinin şikayet edilmemesi için global erişime kapatıp sadece yorum yapanlara açıyoruz. Bu linkleri gizleme işlemini mecburen yapıyoruz ve yorum yapmanızın siteye değil size faydası vardır. Teşekkürler yazmayı çok görüp, Random/Spam/Anlamsız mesajlar atarak forumu kirletip Mega linklerini açmaya çalışan kullanıcılara süresiz ban atacağız.


Sen Hiç Ateşböceği Gördün mü? (Sen Hiç Atesböcegi Gördün mü?) - 2021 - TR+ORG - 1080P | tt13317694
TheSteeL
Sen Hiç Ateşböceği Gördün mü? (Sen Hiç Atesböcegi Gördün mü?) - 2021 - TR+ORG - 1080P | tt13317694
9
426
  • Derecelendirme: 5/5 - 1 oy
  • 1
  • 2
  • 3
  • 4
  • 5
Konuyu Okuyanlar:1 Ziyaretçi
Şuan Online!
Filmin Yayınlanma Tarihi: 2021 
WWW
Şuan Online!
TheSteeL Süper Moderatör
*****
Süper Moderatör



 Sen Hiç Ateşböceği Gördün mü?



Yılmaz Erdoğan'ı parlatan ve kariyerine en büyük katkıyı yapan "Sen Hiç Ateş Böceği Gördün Mü?" Adlı tiyatro eseri 1999 yılında gösterime girmiş bir tiyatro oyunudur. Türkiye'de mizah anlayışına yeni bir bakış açısı getirmiş olan oyun çok ilgi görmüştü. Aradan geçen 22 yılın ardından yapımcılığı Netflix tarafından üstlenilen filmde üstün zekalı bir kızın ortama ayak uydurmaya çalışması trajikomik bir şekilde anlatılarak mizahta 1999 yılında yeni bir tür yaratıyor ve bu yapıt günümüze uzanıyor...

Sen Hiç Ateşböceği Gördün mü? (2021) (Sen Hiç Atesböcegi Gördün mü?) | tt13317694 Filmi Imdb'den 700 kişi tarafından oylandı ve 6,4 puan aldı. Bu film için editör puanı %66 olarak belirlendi. İyi Seyirler!

Teknik Detaylar

Kod :
General
Unique ID                                : 34101411072580913878826326605860974287 (0x19A7B16020E414B1BDA96C2B58642ECF)
Complete name                            : /home/TheSteel/Desktop/1/Sen.Hiç.Ateş.Böceği.Gördün.mü.2021.1080p.WEB-DL.x264.Filmbol.mkv
Format                                   : Matroska
Format version                           : Version 4
File size                                : 2.58 GiB
Duration                                 : 1 h 54 min
Overall bit rate                         : 3 243 kb/s
Movie name                               : Sen Hiç Ateşböceği Gördün mü? - Sen Hiç Atesböcegi Gördün mü? - 2021 | Filmbol.org
Encoded date                             : UTC 2021-04-10 18:22:30
Writing application                      : mkvmerge v31.0.0 ('Dolores In A Shoestand') 64-bit
Writing library                          : libebml v1.3.6 + libmatroska v1.4.9

Video
ID                                       : 1
Format                                   : AVC
Format/Info                              : Advanced Video Codec
Format profile                           : [email protected]
Format settings                          : CABAC / 4 Ref Frames
Format settings, CABAC                   : Yes
Format settings, Reference frames        : 4 frames
Codec ID                                 : V_MPEG4/ISO/AVC
Duration                                 : 1 h 54 min
Bit rate                                 : 2 858 kb/s
Width                                    : 1 920 pixels
Height                                   : 1 080 pixels
Display aspect ratio                     : 16:9
Frame rate mode                          : Constant
Frame rate                               : 24.000 FPS
Color space                              : YUV
Chroma subsampling                       : 4:2:0
Bit depth                                : 8 bits
Scan type                                : Progressive
Bits/(Pixel*Frame)                       : 0.057
Stream size                              : 2.28 GiB (88%)
Title                                    : Sen Hiç Ateşböceği Gördün mü? - Sen Hiç Atesböcegi Gördün mü? - 2021 | Filmbol.org
Writing library                          : x264 core 157 r2932 303c484
Encoding settings                        : cabac=1 / ref=3 / deblock=1:0:0 / analyse=0x3:0x113 / me=hex / subme=7 / psy=1 / psy_rd=1.00:0.00 / mixed_ref=1 / me_range=16 / chroma_me=1 / trellis=1 / 8x8dct=1 / cqm=0 / deadzone=21,11 / fast_pskip=1 / chroma_qp_offset=-2 / threads=24 / lookahead_threads=4 / sliced_threads=0 / nr=0 / decimate=1 / interlaced=0 / bluray_compat=0 / constrained_intra=0 / bframes=3 / b_pyramid=2 / b_adapt=1 / b_bias=0 / direct=1 / weightb=1 / open_gop=0 / weightp=2 / keyint=250 / keyint_min=25 / scenecut=40 / intra_refresh=0 / rc_lookahead=40 / rc=crf / mbtree=1 / crf=21.0 / qcomp=0.60 / qpmin=0 / qpmax=69 / qpstep=4 / ip_ratio=1.40 / aq=1:1.00
Default                                  : Yes
Forced                                   : No

Audio
ID                                       : 2
Format                                   : AC-3
Format/Info                              : Audio Coding 3
Commercial name                          : Dolby Digital
Codec ID                                 : A_AC3
Duration                                 : 1 h 54 min
Bit rate mode                            : Constant
Bit rate                                 : 384 kb/s
Channel(s)                               : 6 channels
Channel layout                           : L R C LFE Ls Rs
Sampling rate                            : 48.0 kHz
Frame rate                               : 31.250 FPS (1536 SPF)
Compression mode                         : Lossy
Stream size                              : 313 MiB (12%)
Title                                    : Sen Hiç Ateşböceği Gördün mü? - Sen Hiç Atesböcegi Gördün mü? - 2021 | Filmbol.org
Language                                 : Turkish
Service kind                             : Complete Main
Default                                  : Yes
Forced                                   : No

Film Detayları


 Sen Hiç Ateşböceği Gördün mü?

 Sen Hiç Ateşböceği Gördün mü?

 Sen Hiç Ateşböceği Gördün mü?


Film Fragmanı


Film Detayları

Uptobox ile indir

1Fichier ile indir

1Fichier'den İndiremiyor musun? Tıklayın!


Mega linki şuan da gizli. Kullanıma açmak için konuya yorum yapın ve ardından sayfayı yenileyin.

Mega


Bunun için üzgünüz ancak, bu linke sadece premium üyeler erişebilir.

Filmbol Cloud





Şuan Offine!
Şuan Offine!
muradims Yeni Üye
*
Üye

  • Konular0
  • Mesajlar5
  • Rep puanı 0
teşekkürler
Şuan Online!
Şuan Online!
TheSteeL Süper Moderatör
*****
Süper Moderatör

(13-04-2021, Saat: 12:51)muradims Adlı Kullanıcıdan Alıntı: teşekkürler
İyi Seyirler
Şuan Offine!
Şuan Offine!
erendrmm Yeni Üye
*
Üye

  • Konular0
  • Mesajlar2
  • Rep puanı 0
(13-04-2021, Saat: 12:51)muradims Adlı Kullanıcıdan Alıntı: teşekkürler
teşekkrüerl
Şuan Offine!
Şuan Offine!
Y.tpğlu Yeni Üye
*
Üye

  • Konular0
  • Mesajlar1
  • Rep puanı 0
filmi indirdim ama şifre istiyor şifre nedir

lütfen biri şifreyi verebilir mi?
Şuan Online!
Şuan Online!
TheSteeL Süper Moderatör
*****
Süper Moderatör

(24-04-2021, Saat: 19:23)Y.tpğlu Adlı Kullanıcıdan Alıntı: filmi indirdim ama şifre istiyor şifre nedir

lütfen biri şifreyi verebilir mi?
Şifre Bulunmamaktadır Şifreli Bir Dosya Değil Şifreli Olsaydı Diğer Arkadaşlarda Erişemezdi Başka Yardımcı Olabilceğim Birşey Varsa Özelden Belirtebilirsin.
Şuan Offine!
Şuan Offine!
neslihan Yeni Üye
*
Üye

  • Konular0
  • Mesajlar1
  • Rep puanı 0
(13-04-2021, Saat: 12:51)muradims Adlı Kullanıcıdan Alıntı: teşekkürler
Teşekkürler Wink
Şuan Online!
Şuan Online!
TheSteeL Süper Moderatör
*****
Süper Moderatör

(25-04-2021, Saat: 00:09)neslihan Adlı Kullanıcıdan Alıntı:
(13-04-2021, Saat: 12:51)muradims Adlı Kullanıcıdan Alıntı: teşekkürler
Teşekkürler Wink
İyi Seyirler
Şuan Offine!
Şuan Offine!
Cooool_84 Yeni Üye
*
Üye

  • Konular0
  • Mesajlar1
  • Rep puanı 0
teşekkürler
Şuan Online!
Şuan Online!
TheSteeL Süper Moderatör
*****
Süper Moderatör

(09-05-2021, Saat: 13:49)Cooool_84 Adlı Kullanıcıdan Alıntı: teşekkürler
İyi Seyirler


Hızlı Menü: