Filmbol Forum Film İndir 720P v Sen Hiç Ateşböceği Gördün mü? (Sen Hiç Atesböcegi Gördün mü?) - 2021 - TR+ORG - 720P | tt13317694

Premium Üyelik Al

Bildirimi Kapat
Mega linklerinin şikayet edilmemesi için global erişime kapatıp sadece yorum yapanlara açıyoruz. Bu linkleri gizleme işlemini mecburen yapıyoruz ve yorum yapmanızın siteye değil size faydası vardır. Teşekkürler yazmayı çok görüp, Random/Spam/Anlamsız mesajlar atarak forumu kirletip Mega linklerini açmaya çalışan kullanıcılara süresiz ban atacağız.


Sen Hiç Ateşböceği Gördün mü? (Sen Hiç Atesböcegi Gördün mü?) - 2021 - TR+ORG - 720P | tt13317694
TheSteeL
Sen Hiç Ateşböceği Gördün mü? (Sen Hiç Atesböcegi Gördün mü?) - 2021 - TR+ORG - 720P | tt13317694
1
351
  • Derecelendirme: 0/5 - 0 oy
  • 1
  • 2
  • 3
  • 4
  • 5
Konuyu Okuyanlar:1 Ziyaretçi
Şuan Online!
Filmin Yayınlanma Tarihi: 2021 
WWW
Şuan Online!
TheSteeL Süper Moderatör
*****
Süper Moderatör



 Sen Hiç Ateşböceği Gördün mü?



Yılmaz Erdoğan'ı parlatan ve kariyerine en büyük katkıyı yapan "Sen Hiç Ateş Böceği Gördün Mü?" Adlı tiyatro eseri 1999 yılında gösterime girmiş bir tiyatro oyunudur. Türkiye'de mizah anlayışına yeni bir bakış açısı getirmiş olan oyun çok ilgi görmüştü. Aradan geçen 22 yılın ardından yapımcılığı Netflix tarafından üstlenilen filmde üstün zekalı bir kızın ortama ayak uydurmaya çalışması trajikomik bir şekilde anlatılarak mizahta 1999 yılında yeni bir tür yaratıyor ve bu yapıt günümüze uzanıyor...

Sen Hiç Ateşböceği Gördün mü? (2021) (Sen Hiç Atesböcegi Gördün mü?) | tt13317694 Filmi Imdb'den 700 kişi tarafından oylandı ve 6,4 puan aldı. Bu film için editör puanı %66 olarak belirlendi. İyi Seyirler!

Teknik Detaylar

Kod :
General
Unique ID                                : 139544388605190780006296459339069560050 (0x68FB458B6AEB71CE4B438D91BD6E94F2)
Complete name                            : /home/TheSteel/Desktop/1/Sen.Hiç.Ateş.Böceği.Gördün.mü.2021.720p.WEB-DL.x264.Filmbol.mkv
Format                                   : Matroska
Format version                           : Version 4
File size                                : 1.71 GiB
Duration                                 : 1 h 54 min
Overall bit rate                         : 2 141 kb/s
Movie name                               : Sen Hiç Ateşböceği Gördün mü? - Sen Hiç Atesböcegi Gördün mü? - 2021 | Filmbol.org
Encoded date                             : UTC 2021-04-10 18:25:02
Writing application                      : mkvmerge v31.0.0 ('Dolores In A Shoestand') 64-bit
Writing library                          : libebml v1.3.6 + libmatroska v1.4.9

Video
ID                                       : 1
Format                                   : AVC
Format/Info                              : Advanced Video Codec
Format profile                           : [email protected]
Format settings                          : CABAC / 2 Ref Frames
Format settings, CABAC                   : Yes
Format settings, Reference frames        : 2 frames
Codec ID                                 : V_MPEG4/ISO/AVC
Duration                                 : 1 h 54 min
Bit rate                                 : 1 755 kb/s
Width                                    : 1 280 pixels
Height                                   : 720 pixels
Display aspect ratio                     : 16:9
Frame rate mode                          : Constant
Frame rate                               : 24.000 FPS
Color space                              : YUV
Chroma subsampling                       : 4:2:0
Bit depth                                : 8 bits
Scan type                                : Progressive
Bits/(Pixel*Frame)                       : 0.079
Stream size                              : 1.40 GiB (82%)
Title                                    : Sen Hiç Ateşböceği Gördün mü? - Sen Hiç Atesböcegi Gördün mü? - 2021 | Filmbol.org
Default                                  : Yes
Forced                                   : No

Audio
ID                                       : 2
Format                                   : AC-3
Format/Info                              : Audio Coding 3
Commercial name                          : Dolby Digital
Codec ID                                 : A_AC3
Duration                                 : 1 h 54 min
Bit rate mode                            : Constant
Bit rate                                 : 384 kb/s
Channel(s)                               : 6 channels
Channel layout                           : L R C LFE Ls Rs
Sampling rate                            : 48.0 kHz
Frame rate                               : 31.250 FPS (1536 SPF)
Compression mode                         : Lossy
Stream size                              : 313 MiB (18%)
Title                                    : Sen Hiç Ateşböceği Gördün mü? - Sen Hiç Atesböcegi Gördün mü? - 2021 | Filmbol.org
Language                                 : Turkish
Service kind                             : Complete Main
Default                                  : Yes
Forced                                   : No

Film Detayları


 Sen Hiç Ateşböceği Gördün mü?

 Sen Hiç Ateşböceği Gördün mü?

 Sen Hiç Ateşböceği Gördün mü?


Film Fragmanı


Film Detayları

Uptobox ile indir

1Fichier ile indir

1Fichier'den İndiremiyor musun? Tıklayın!


Mega linki şuan da gizli. Kullanıma açmak için konuya yorum yapın ve ardından sayfayı yenileyin.

Mega


Bunun için üzgünüz ancak, bu linke sadece premium üyeler erişebilir.

Filmbol Cloud





Şuan Offine!
Şuan Offine!
asd436terdfgdfh Yeni Üye
*
Üye

  • Konular0
  • Mesajlar1
  • Rep puanı 0
süper film


Hızlı Menü: