Filmbol Forum Film İndir BRRip XviD v Barbarları Beklerken (Waiting for the Barbarians) - 2019 - TR - BRRip XviD | tt6149154
Mega linklerinin şikayet edilmemesi için global erişime kapatıp sadece yorum yapanlara açıyoruz. Bu linkleri gizleme işlemini mecburen yapıyoruz ve yorum yapmanızın siteye değil size faydası vardır. Teşekürler yazmayı çok görüp, Random/Spam mesajlar atarak Mega linklerini açmaya çalışan kullanıcılara önce süresiz ban, devam ederse IP ban atacağız.
Filmbol'da moderatör olmak ister misiniz? Bizimle iletişime geçmek için tıklayın!
Barbarları Beklerken (Waiting for the Barbarians) - 2019 - TR - BRRip XviD | tt6149154
TheSteeL
Barbarları Beklerken (Waiting for the Barbarians) - 2019 - TR - BRRip XviD | tt6149154
0
27
  • Derecelendirme: 0/5 - 0 oy
  • 1
  • 2
  • 3
  • 4
  • 5
Konuyu Okuyanlar:1 Ziyaretçi
Şuan Online!
Filmin Yayınlanma Tarihi: 2019 
WWW
Şuan Online!
TheSteeL Süper Moderatör
*****
Süper Moderatör



 Barbarları Beklerken



Bir imparatorluğun önemli bir askeri olduğunuzu düşünün. Bu durumda imparatorluk size avans sağlayacak ve bir nevi dokunulmaz olacaksınız. Fakat imparatorluklar her zaman birileri ile savaş halindedirler. Onların davaları sizin de davanız olur. Fakat bu dava da yanlış giden bir şeyler olduğunu anladığınız da, dokunulmaz yetkisini kaybetmeyi göze alarak ihanet eder miydiniz? Barbarları Beklerken filminde bu durumda olan bir askerin barbarlara karşı savaş emri aldığında imparatorluğun yanlış bir karar aldığını anlayacak ve ikilemde kalacaktır...

Barbarları Beklerken (2019) (Waiting for the Barbarians) | tt6149154 Filmi Imdb'den 7500 kişi tarafından oylandı ve 5,9 puan aldı. Bu film için editör puanı %64 olarak belirlendi. İyi Seyirler!

Teknik Detaylar

Kod :
General
Unique ID                                : 160894352428732337547031500221909803397 (0x790B200807B187EE4D42E2F1E893A185)
Complete name                            : /home/TheSteel/Desktop/1/Barbarları.Beklerken.2019.BDRip.XViD.TR.Filmbol.avi
Format                                   : Matroska
Format version                           : Version 4
File size                                : 1.20 GiB
Duration                                 : 1 h 53 min
Overall bit rate                         : 1 513 kb/s
Movie name                               : Waiting For The Barbarians - Barbarları Beklerken - 2019 | Filmbol.org
Encoded date                             : UTC 2021-04-08 18:16:12
Writing application                      : mkvmerge v31.0.0 ('Dolores In A Shoestand') 64-bit
Writing library                          : libebml v1.3.6 + libmatroska v1.4.9
FileExtension_Invalid                    : mkv mk3d mka mks

Video
ID                                       : 1
Format                                   : MPEG-4 Visual
Format profile                           : Advanced [email protected]
Format settings                          : BVOP1 / Custom Matrix
Format settings, BVOP                    : 1
Format settings, QPel                    : No
Format settings, GMC                     : No warppoints
Format settings, Matrix                  : Custom
Codec ID                                 : V_MS/VFW/FOURCC / XVID
Codec ID/Hint                            : XviD
Duration                                 : 1 h 53 min
Bit rate                                 : 1 384 kb/s
Width                                    : 720 pixels
Height                                   : 304 pixels
Display aspect ratio                     : 2.35:1
Frame rate mode                          : Constant
Frame rate                               : 23.976 (23976/1000) FPS
Color space                              : YUV
Chroma subsampling                       : 4:2:0
Bit depth                                : 8 bits
Scan type                                : Progressive
Compression mode                         : Lossy
Bits/(Pixel*Frame)                       : 0.264
Stream size                              : 1.10 GiB (91%)
Title                                    : Waiting For The Barbarians - Barbarları Beklerken - 2019 | Filmbol.org
Writing library                          : XviD 73
Default                                  : Yes
Forced                                   : No

Audio
ID                                       : 2
Format                                   : MPEG Audio
Format version                           : Version 1
Format profile                           : Layer 3
Format settings                          : Joint stereo / MS Stereo
Codec ID                                 : A_MPEG/L3
Codec ID/Hint                            : MP3
Duration                                 : 1 h 53 min
Bit rate mode                            : Constant
Bit rate                                 : 128 kb/s
Channel(s)                               : 2 channels
Sampling rate                            : 48.0 kHz
Frame rate                               : 41.667 FPS (1152 SPF)
Compression mode                         : Lossy
Stream size                              : 104 MiB (8%)
Title                                    : Waiting For The Barbarians - Barbarları Beklerken - 2019 | Filmbol.org
Writing library                          : LAME3.99.5
Default                                  : Yes
Forced                                   : No

Film Detayları


 Barbarları Beklerken

 Barbarları Beklerken

 Barbarları Beklerken


Film Fragmanı


Film Detayları


Uptobox ile indir

1Fichier ile indir

1Fichier'den İndiremiyor musun? Tıklayın!


Mega linki şuan da gizli. Kullanıma açmak için konuya yorum yapın ve ardından sayfayı yenileyin.

Mega


Bunun için üzgünüz ancak, bu linke sadece premium üyeler erişebilir.

Filmbol Cloud







Konu ile Alakalı Benzer Konular
Konular Yazar Yorumlar Okunma Son Yorum
Filmin Yayınlanma Tarihi: 2021
Donma Noktası (Below Zero) - 2021 - TR - BRRip XviD TheSteeL 4 92 , Saat: 01:39
Son Yorum: TheSteeL
Filmin Yayınlanma Tarihi: 2015
Yeni Ahit (Le tout nouveau testament) - 2015 - TR - BRRip XviD | tt3792960 TheSteeL 0 9 , Saat: 23:51
Son Yorum: TheSteeL
Filmin Yayınlanma Tarihi: 2015
Diriliş (The Revenant) - 2015 - TR - BRRip XviD | tt1663202 BroserBros 4 3,533 , Saat: 19:42
Son Yorum: BroserBros
Filmin Yayınlanma Tarihi: 2018
Adalet 2 (The Equalizer 2) - 2018 - TR - BRRip XviD | tt3766354 BroserBros 4 933 , Saat: 19:30
Son Yorum: BroserBros
Filmin Yayınlanma Tarihi: 2019
Aslan Kral (The Lion King) - 2019 - TR - BRRip XviD | tt6105098 BroserBros 10 2,196 , Saat: 19:18
Son Yorum: BroserBros

Hızlı Menü: