Filmbol Forum Film İndir FHD - FULL HD v O Bölüm 2 (It Chapter Two) - 2019 - TR+ORG - FHD - x264 | tt7349950
Mega linklerinin şikayet edilmemesi için global erişime kapatıp sadece yorum yapanlara açıyoruz. Bu linkleri gizleme işlemini mecburen yapıyoruz ve yorum yapmanızın siteye değil size faydası vardır. Teşekürler yazmayı çok görüp, Random/Spam mesajlar atarak Mega linklerini açmaya çalışan kullanıcılara önce süresiz ban, devam ederse IP ban atacağız.
Filmbol'da moderatör olmak ister misiniz? Bizimle iletişime geçmek için tıklayın!
O Bölüm 2 (It Chapter Two) - 2019 - TR+ORG - FHD - x264 | tt7349950
BroserBros
O Bölüm 2 (It Chapter Two) - 2019 - TR+ORG - FHD - x264 | tt7349950
0
44
  • Derecelendirme: 0/5 - 0 oy
  • 1
  • 2
  • 3
  • 4
  • 5
Konuyu Okuyanlar:1 Ziyaretçi
Şuan Online!
Filmin Yayınlanma Tarihi: 2019 
WWW
Şuan Online!
BroserBros Kurucu Admin
*******
Admin



 O Bölüm 2



O Bölüm 2, seytan palyaçonun geri dönmesi ile yirmi yedi yıl sonra yeniden bir araya gelen Ezikler Kulübü üyelerinin hikayesini konu ediyor. Aldığı yenilginin üzerinden geçen yirmi yedi yılın ardından Pennywise, Derry kasabasına geri döner. Ezikler Kulübü’nün üyelerinin her biri bir yana savrulmuş, sadece Mike kasabada yaşamını sürdürmeye devam etmektedir. Mike, tıpkı yıllar önce olduğu gibi insanların ortadan kaybolmaya başlaması sonucu arkadaşlarını kasabaya çağırmaya karar verir. Pennywise’ın geri dönüşü sebebiyle, çocukken söz verdikleri gibi kasabaya geri dönen yetişkinler bir kez daha şeytani palyaço ile karşı karşıyadır. Ancak yıllar sonra bir araya gelen ekibin birbirlerini yeniden tanımaları da bir hayli zor olur. Artık evli bir adam olan Bill ve sevgilisinden şiddet gören Beverly başta olmak üzere, tanıştıklarından bambaşka hayatlar yaşayan eski arkadaşlar, bir kez daha el ele vermek zorunda kalır.

O Bölüm 2 (2019) (It Chapter Two) | tt7349950 Filmi Imdb'den 210,000 kişi tarafından oylandı ve 6,5 puan aldı. Bu film için editör puanı %79 olarak belirlendi. İyi Seyirler!

Teknik Detaylar

Kod :
General
Unique ID                                : 107122185986996245010909323414427467869 (0x5096FB89B616E953B24D060EABED005D)
Complete name                            : /home/BroserBros/Desktop/1/O.Bölüm.2.2019.FHD.BluRay.x264.TR.ENG.Filmbol.mkv
Format                                   : Matroska
Format version                           : Version 4
File size                                : 6.38 GiB
Duration                                 : 2 h 50 min
Overall bit rate                         : 5 365 kb/s
Movie name                               : O: Bölüm 2 - İt: Chapter Two - 2019 | Filmbol.org
Encoded date                             : UTC 2021-04-05 11:59:15
Writing application                      : mkvmerge v53.0.0 ('Fool's Gold') 64-bit
Writing library                          : libebml v1.4.1 + libmatroska v1.6.2

Video
ID                                       : 1
Format                                   : AVC
Format/Info                              : Advanced Video Codec
Format profile                           : [email protected]
Format settings                          : CABAC / 5 Ref Frames
Format settings, CABAC                   : Yes
Format settings, Reference frames        : 5 frames
Codec ID                                 : V_MPEG4/ISO/AVC
Duration                                 : 2 h 49 min
Bit rate                                 : 4 555 kb/s
Width                                    : 1 920 pixels
Height                                   : 804 pixels
Display aspect ratio                     : 2.40:1
Frame rate mode                          : Constant
Frame rate                               : 23.976 (24000/1001) FPS
Color space                              : YUV
Chroma subsampling                       : 4:2:0
Bit depth                                : 8 bits
Scan type                                : Progressive
Bits/(Pixel*Frame)                       : 0.123
Stream size                              : 5.39 GiB (84%)
Title                                    : FHD - Filmbol.org
Language                                 : English
Default                                  : Yes
Forced                                   : No
Color range                              : Limited
Color primaries                          : BT.709
Transfer characteristics                 : BT.709
Matrix coefficients                      : BT.709

Audio #1
ID                                       : 2
Format                                   : AC-3
Format/Info                              : Audio Coding 3
Commercial name                          : Dolby Digital
Codec ID                                 : A_AC3
Duration                                 : 2 h 50 min
Bit rate mode                            : Constant
Bit rate                                 : 448 kb/s
Channel(s)                               : 6 channels
Channel layout                           : L R C LFE Ls Rs
Sampling rate                            : 48.0 kHz
Frame rate                               : 31.250 FPS (1536 SPF)
Compression mode                         : Lossy
Stream size                              : 545 MiB (8%)
Title                                    : Türkçe - Filmbol.org
Language                                 : Turkish
Service kind                             : Complete Main
Default                                  : Yes
Forced                                   : No

Audio #2
ID                                       : 3
Format                                   : AC-3
Format/Info                              : Audio Coding 3
Commercial name                          : Dolby Digital
Codec ID                                 : A_AC3
Duration                                 : 2 h 49 min
Bit rate mode                            : Constant
Bit rate                                 : 384 kb/s
Channel(s)                               : 6 channels
Channel layout                           : L R C LFE Ls Rs
Sampling rate                            : 48.0 kHz
Frame rate                               : 31.250 FPS (1536 SPF)
Compression mode                         : Lossy
Stream size                              : 465 MiB (7%)
Title                                    : Orjinal Dil - Filmbol.org
Language                                 : English
Service kind                             : Complete Main
Default                                  : No
Forced                                   : No

Text
ID                                       : 4
Format                                   : UTF-8
Codec ID                                 : S_TEXT/UTF8
Codec ID/Info                            : UTF-8 Plain Text
Duration                                 : 2 h 48 min
Bit rate                                 : 46 b/s
Count of elements                        : 2278
Stream size                              : 57.1 KiB (0%)
Title                                    : Türkçe - Filmbol.org
Language                                 : Turkish
Default                                  : No
Forced                                   : No

Film Detayları


 O Bölüm 2

 O Bölüm 2

 O Bölüm 2


Film Fragmanı


Film Detayları

Bunun için üzgünüz ancak, bu linke sadece premium üyeler erişebilir.

Filmbol Cloud







Konu ile Alakalı Benzer Konular
Konular Yazar Yorumlar Okunma Son Yorum
Filmin Yayınlanma Tarihi: 2015
Yeni Ahit (Le tout nouveau testament) - 2015 - TR+ORG - FHD - x264 | tt3792960 TheSteeL 0 7 , Saat: 23:53
Son Yorum: TheSteeL
Filmin Yayınlanma Tarihi: 2015
Diriliş (The Revenant) - 2015 - TR+ORG - FHD - x264 | tt1663202 BroserBros 0 6 , Saat: 19:41
Son Yorum: BroserBros
Filmin Yayınlanma Tarihi: 2018
Adalet 2 (The Equalizer 2) - 2018 - TR+ORG - FHD - x264 | tt3766354 BroserBros 0 7 , Saat: 19:29
Son Yorum: BroserBros
Filmin Yayınlanma Tarihi: 2019
Aslan Kral (The Lion King) - 2019 - TR+ORG - FHD - x264 | tt6105098 BroserBros 0 7 , Saat: 19:17
Son Yorum: BroserBros
Filmin Yayınlanma Tarihi: 2015
Ters Yüz (Inside Out) - 2015 - TR+ORG - FHD - x264 | tt2096673 BroserBros 0 8 , Saat: 19:06
Son Yorum: BroserBros

Hızlı Menü: