Filmbol Forum Film İndir FHD - FULL HD v Karayip Korsanları 5: Salazar’ın İntikamı (Pirates of the Caribbean: Dead Men Tell No Tales) - 2017 - TR+ORG - FHD - x264 | tt1790809
Bildirimi Kapat
Server kaynaklı problemden dolayı ciddi bir sorun yaşadık. Şuanda forum ve portal aktif halde ancak bazı problemler hala devam ediyor. Problem gördüğünüz yerleri bize bildirmeniz çok önemli. Teşekkürler.

Bildirimi Kapat
Merhaba , site giderlerini bir nebze olsun karşılamak adına link kısaltma servisleri kullanmaya başladık. İndirme linkleri sizi ouo.io adresinde yönlendirecek, 3 saniye geçtikten sonra Get Link butonuna tıklayarak linke ulaşacaksınız. Premium üyeler bu durumdan etkilenmeyecektir.


Premium Üyelik Al

Karayip Korsanları 5: Salazar’ın İntikamı (Pirates of the Caribbean: Dead Men Tell No Tales) - 2017 - TR+ORG - FHD - x264 | tt1790809
BroserBros
Karayip Korsanları 5: Salazar’ın İntikamı (Pirates of the Caribbean: Dead Men Tell No Tales) - 2017 - TR+ORG - FHD - x264 | tt1790809
4
205
  • Derecelendirme: 0/5 - 0 oy
  • 1
  • 2
  • 3
  • 4
  • 5
Konuyu Okuyanlar:1 Ziyaretçi
Şuan Online!
Filmin Yayınlanma Tarihi: 2017 
Şuan Online!
BroserBros Kurucu Admin
*******
Admin


 Karayip Korsanları 5: Salazar’ın İntikamı



Jack Sparrow, ölümsüzlük ile cezalandırılmış bir adam ve onun ordusundan kaçarken, bir yandan da poseidon’un kılıcını aramaktadır ve maceralar yine onun peşini bırakmaz. Tabii ölümsüz adamlar da...

Karayip Korsanları 5: Salazar’ın İntikamı (2017) (Pirates of the Caribbean: Dead Men Tell No Tales) | tt1790809 Filmi Imdb'den 270,000 kişi tarafından oylandı ve 6,5 puan aldı. Bu film için editör puanı %75 olarak belirlendi. İyi Seyirler!

Teknik Detaylar

Kod :
General
Unique ID                                : 207376427123134604902137274633375280012 (0x9C033F405984C900021A7A64C8D96B8C)
Complete name                            : /home/BroserBros/Desktop/8/Karayip.Korsanları.5.Salazarın.İntikamı.2017.FHD.BluRay.x264.TR.ENG.Filmbol.mkv
Format                                   : Matroska
Format version                           : Version 4
File size                                : 4.78 GiB
Duration                                 : 2 h 9 min
Overall bit rate                         : 5 305 kb/s
Movie name                               : Karayip Korsanları 5: Salazar'ın İntikamı - Pirates of The Caribbean 5: Dead Men Tell No Tales - 2017 | Filmbol.org
Encoded date                             : UTC 2021-04-02 15:29:43
Writing application                      : mkvmerge v53.0.0 ('Fool's Gold') 64-bit
Writing library                          : libebml v1.4.1 + libmatroska v1.6.2

Video
ID                                       : 1
Format                                   : AVC
Format/Info                              : Advanced Video Codec
Format profile                           : [email protected]
Format settings                          : CABAC / 5 Ref Frames
Format settings, CABAC                   : Yes
Format settings, Reference frames        : 5 frames
Codec ID                                 : V_MPEG4/ISO/AVC
Duration                                 : 2 h 9 min
Bit rate                                 : 4 535 kb/s
Width                                    : 1 920 pixels
Height                                   : 800 pixels
Display aspect ratio                     : 2.40:1
Frame rate mode                          : Constant
Frame rate                               : 23.976 (24000/1001) FPS
Color space                              : YUV
Chroma subsampling                       : 4:2:0
Bit depth                                : 8 bits
Scan type                                : Progressive
Bits/(Pixel*Frame)                       : 0.123
Stream size                              : 4.09 GiB (85%)
Title                                    : FHD - Filmbol.org
Language                                 : English
Default                                  : Yes
Forced                                   : No
Color range                              : Limited
Color primaries                          : BT.709
Transfer characteristics                 : BT.709
Matrix coefficients                      : BT.709

Audio #1
ID                                       : 2
Format                                   : AC-3
Format/Info                              : Audio Coding 3
Commercial name                          : Dolby Digital
Codec ID                                 : A_AC3
Duration                                 : 2 h 9 min
Bit rate mode                            : Constant
Bit rate                                 : 384 kb/s
Channel(s)                               : 6 channels
Channel layout                           : L R C LFE Ls Rs
Sampling rate                            : 48.0 kHz
Frame rate                               : 31.250 FPS (1536 SPF)
Compression mode                         : Lossy
Delay relative to video                  : 24 ms
Stream size                              : 355 MiB (7%)
Title                                    : Türkçe - Filmbol.org
Language                                 : Turkish
Service kind                             : Complete Main
Default                                  : Yes
Forced                                   : No

Audio #2
ID                                       : 3
Format                                   : AC-3
Format/Info                              : Audio Coding 3
Commercial name                          : Dolby Digital
Codec ID                                 : A_AC3
Duration                                 : 2 h 9 min
Bit rate mode                            : Constant
Bit rate                                 : 384 kb/s
Channel(s)                               : 6 channels
Channel layout                           : L R C LFE Ls Rs
Sampling rate                            : 48.0 kHz
Frame rate                               : 31.250 FPS (1536 SPF)
Compression mode                         : Lossy
Stream size                              : 355 MiB (7%)
Title                                    : Orjinal Dil - Filmbol.org
Language                                 : English
Service kind                             : Complete Main
Default                                  : No
Forced                                   : No

Text #1
ID                                       : 4
Format                                   : UTF-8
Codec ID                                 : S_TEXT/UTF8
Codec ID/Info                            : UTF-8 Plain Text
Duration                                 : 1 h 4 min
Bit rate                                 : 0 b/s
Count of elements                        : 9
Stream size                              : 191 Bytes (0%)
Title                                    : Türkçe FORCED - Filmbol.org
Language                                 : Turkish
Default                                  : Yes
Forced                                   : No

Text #2
ID                                       : 5
Format                                   : UTF-8
Codec ID                                 : S_TEXT/UTF8
Codec ID/Info                            : UTF-8 Plain Text
Duration                                 : 1 h 59 min
Bit rate                                 : 46 b/s
Count of elements                        : 1318
Stream size                              : 40.8 KiB (0%)
Title                                    : Türkçe - Filmbol.org
Language                                 : Turkish
Default                                  : No
Forced                                   : No

Film Detayları


 Karayip Korsanları 5: Salazar’ın İntikamı

 Karayip Korsanları 5: Salazar’ın İntikamı

 Karayip Korsanları 5: Salazar’ın İntikamı


Film Fragmanı


Film İndir



Zip Şifresi: filmbol.org Aşağıdaki butona tıklayarak kopyalabilirsiniz.





Filmbol Cloud

Bunun için üzgünüz ancak, bu linke sadece premium üyeler erişebilir.




WWW
Şuan Offine!
Şuan Offine!
neobre Yeni Üye
*
Üye
  • Konular0
  • Mesajlar117
  • Rep puanı 0
Teşekkürler
Şuan Offine!
Şuan Offine!
yky Yeni Üye
*
Üye
  • Konular0
  • Mesajlar4
  • Rep puanı 0
Çok teşekkürler...
Şuan Offine!
Şuan Offine!
tades Yeni Üye
*
Üye
  • Konular0
  • Mesajlar1
  • Rep puanı 0
teşekkürler.
Şuan Offine!
Şuan Offine!
Tuva Yeni Üye
*
Üye
  • Konular0
  • Mesajlar40
  • Rep puanı 0
Teşekkür Ederim


Hızlı Menü: