Filmbol Forum Film İndir 720P v Darphane Soygunu (Coin Heist) Türkçe Dublaj m720P İndir
Mega linklerinin şikayet edilmemesi için global erişime kapatıp sadece yorum yapanlara açıyoruz. Bu linkleri gizleme işlemini mecburen yapıyoruz ve yorum yapmanızın siteye değil size faydası vardır. Teşekürler yazmayı çok görüp, Random/Spam mesajlar atarak Mega linklerini açmaya çalışan kullanıcılara önce süresiz ban, devam ederse IP ban atacağız.
Filmbol'da moderatör olmak ister misiniz? Bizimle iletişime geçmek için tıklayın!
Darphane Soygunu (Coin Heist) Türkçe Dublaj m720P İndir
BroserBros
Darphane Soygunu (Coin Heist) Türkçe Dublaj m720P İndir
1
1012
  • Derecelendirme: 0/5 - 0 oy
  • 1
  • 2
  • 3
  • 4
  • 5
Konuyu Okuyanlar:1 Ziyaretçi
Şuan Online!
Filmin Yayınlanma Tarihi: 2017 
WWW
Şuan Online!
BroserBros Kurucu Admin
*******
Admin





Ses Kodek: AC3


Audio Coding 3 (AC3)

rarsifresi


filmbol.org





Teknik Detaylar
Kod :
General
Format                                   : Matroska
Format version                           : Version 4 / Version 2
File size                                : 1.10 GiB
Duration                                 : 1h 37mn
Overall bit rate                         : 1 618 Kbps
Movie name                               : Coin Heist - Filmbol.org

Video
ID                                       : 1
Format                                   : AVC
Format/Info                              : Advanced Video Codec
Format profile                           : [email protected]
Format settings, CABAC                   : Yes
Format settings, ReFrames                : 2 frames
Codec ID                                 : V_MPEG4/ISO/AVC
Duration                                 : 1h 37mn
Bit rate                                 : 1 202 Kbps
Width                                    : 1 280 pixels
Height                                   : 688 pixels
Display aspect ratio                     : 1.85:1
Frame rate mode                          : Constant
Frame rate                               : 23.976 fps
Color space                              : YUV
Chroma subsampling                       : 4:2:0
Bit depth                                : 8 bits
Scan type                                : Progressive
Bits/(Pixel*Frame)                       : 0.057
Stream size                              : 840 MiB (74%)
Title                                    : 720P - Filmbol.org
Default                                  : Yes
Forced                                   : No

Audio
ID                                       : 2
Format                                   : AC-3
Format/Info                              : Audio Coding 3
Mode extension                           : CM (complete main)
Format settings, Endianness              : Big
Codec ID                                 : A_AC3
Duration                                 : 1h 37mn
Bit rate mode                            : Constant
Bit rate                                 : 384 Kbps
Channel(s)                               : 6 channels
Channel positions                        : Front: L C R, Side: L R, LFE
Sampling rate                            : 48.0 KHz
Bit depth                                : 16 bits
Compression mode                         : Lossy
Stream size                              : 268 MiB (24%)
Title                                    : Türkçe - Filmbol.org
Language                                 : Turkish
Default                                  : Yes
Forced                                   : No

Film Detayları


Coin Heist

Coin Heist

Coin Heist

Coin Heist

Coin Heist


Film Fragmanı


Film Detayları

Mini 720P İndir


Mega linki şuan da gizli. Kullanıma açmak için konuya yorum yapın ve ardından sayfayı yenileyin.

Mega


Uptobox ile indir

CloudRu ile indir

Şuan Offine!
Şuan Offine!
draydinozkan Süper Üye
***
Super Üye

  • Konular0
  • Mesajlar57
  • Rep puanı 0
TEşekkürler.


Konu ile Alakalı Benzer Konular
Konular Yazar Yorumlar Okunma Son Yorum
Filmin Yayınlanma Tarihi: 2015
Enigma (The Imitation Game) Türkçe Dublaj m720P İndir BroserBros 3 3,113 , Saat: 15:32
Son Yorum: algül
Filmin Yayınlanma Tarihi: 1991
Kuzuların Sessizliği (The Silence of the Lambs) Türkçe Dublaj BLURAY 720P indir BroserBros 2 329 03-05-2021, Saat: 15:03
Son Yorum: BürkütFenrir
Filmin Yayınlanma Tarihi: 2017
Doğu Ekspresinde Cinayet (Murder on the Orient Express) Türkçe Dublaj m720P İndir BroserBros 2 645 03-05-2021, Saat: 15:01
Son Yorum: BürkütFenrir
Filmin Yayınlanma Tarihi: 2019
IO (2019) Türkçe Dublaj BLURAY m720P İndir BroserBros 4 804 23-04-2021, Saat: 09:36
Son Yorum: fantom
Filmin Yayınlanma Tarihi: 2019
Angry Birds Filmi 2 (The Angry Birds Movie 2) Türkçe Dublaj 720P İndir BroserBros 5 637 15-04-2021, Saat: 15:30
Son Yorum: barakali

Hızlı Menü: