Filmbol Forum Film İndir BRRip XviD v Her Zaman Şeytan (The Devil All the Time) - 2020 - TR - BRRip XviD | tt7395114
Mega linklerinin şikayet edilmemesi için global erişime kapatıp sadece yorum yapanlara açıyoruz. Bu linkleri gizleme işlemini mecburen yapıyoruz ve yorum yapmanızın siteye değil size faydası vardır. Teşekürler yazmayı çok görüp, Random/Spam mesajlar atarak Mega linklerini açmaya çalışan kullanıcılara önce süresiz ban, devam ederse IP ban atacağız.
Filmbol'da moderatör olmak ister misiniz? Bizimle iletişime geçmek için tıklayın!
Her Zaman Şeytan (The Devil All the Time) - 2020 - TR - BRRip XviD | tt7395114
TheSteeL
Her Zaman Şeytan (The Devil All the Time) - 2020 - TR - BRRip XviD | tt7395114
1
127
  • Derecelendirme: 0/5 - 0 oy
  • 1
  • 2
  • 3
  • 4
  • 5
Konuyu Okuyanlar:1 Ziyaretçi
Şuan Online!
WWW
Şuan Online!
TheSteeL Süper Moderatör
*****
Süper Moderatör




 Her Zaman Şeytan



Birbirinden farklı birçok karakteri içerisine alan filmde belirli bir başrol yerine birden fazla karakter ve bu karakterlerin birbiriyle bağlantısız iken birdenbire nasıl bağlantılı hale geldiği konu ediniliyor. Karakterler arasında; Asker olan ve karısı vefat eden Willard Russell, iki adet kafayı yemiş psikopat seri katil olan Carl ve Sandy Henderson, Din adamı Roy gibi karakterler bir şekilde bir araya gelir ve aralarında kalan isimler ise William ve Charlotte olacak ve film karmaşık bir hal alacaktır...

Her Zaman Şeytan (2020) (The Devil All the Time) | tt7395114 Filmi Imdb'den 96000 kişi tarafından oylandı ve 7,1 puan aldı. Bu film için editör puanı %70 olarak belirlendi. İyi Seyirler!

Teknik Detaylar

Kod :
General
Complete name                            : /home/TheSteel/Desktop/6/Her.Zaman.Şeytan.2020.HDRip.XViD.TR.Filmbol.avi
Format                                  : AVI
Format/Info                              : Audio Video Interleave
File size                                : 1.67 GiB
Duration                                : 2 h 18 min
Overall bit rate                        : 1 717 kb/s

Video
ID                                      : 0
Format                                  : MPEG-4 Visual
Format profile                          : [email protected]
Format settings, BVOP                    : No
Format settings, QPel                    : No
Format settings, GMC                    : No warppoints
Format settings, Matrix                  : Default (H.263)
Codec ID                                : XVID
Codec ID/Hint                            : XviD
Duration                                : 2 h 18 min
Bit rate                                : 1 576 kb/s
Width                                    : 720 pixels
Height                                  : 302 pixels
Display aspect ratio                    : 2.40:1
Frame rate                              : 24.000 FPS
Color space                              : YUV
Chroma subsampling                      : 4:2:0
Bit depth                                : 8 bits
Scan type                                : Progressive
Compression mode                        : Lossy
Bits/(Pixel*Frame)                      : 0.302
Stream size                              : 1.53 GiB (92%)
Writing library                          : Lavc58.35.100

Audio
ID                                      : 1
Format                                  : MPEG Audio
Format version                          : Version 1
Format profile                          : Layer 3
Format settings                          : Joint stereo / MS Stereo
Codec ID                                : 55
Codec ID/Hint                            : MP3
Duration                                : 2 h 18 min
Bit rate mode                            : Constant
Bit rate                                : 128 kb/s
Channel(s)                              : 2 channels
Sampling rate                            : 48.0 kHz
Frame rate                              : 41.667 FPS (1152 SPF)
Compression mode                        : Lossy
Stream size                              : 127 MiB (7%)
Alignment                                : Aligned on interleaves
Interleave, duration                    : 24  ms (0.58 video frame)

Film Detayları


 Her Zaman Şeytan

 Her Zaman Şeytan

 Her Zaman Şeytan


Film Fragmanı


Film Detayları


Uptobox ile indir

1Fichier ile indir

1Fichier'den İndiremiyor musun? Tıklayın!


Mega linki şuan da gizli. Kullanıma açmak için konuya yorum yapın ve ardından sayfayı yenileyin.

Mega


Bunun için üzgünüz ancak, bu linke sadece premium üyeler erişebilir.

Filmbol Cloud





Şuan Online!
Şuan Online!
Furkan61 Süper Üye
***
Super Üye

  • Konular0
  • Mesajlar184
  • Rep puanı 1
güzel


Konu ile Alakalı Benzer Konular
Konular Yazar Yorumlar Okunma Son Yorum
Filmin Yayınlanma Tarihi: 2021
Donma Noktası (Below Zero) - 2021 - TR - BRRip XviD TheSteeL 4 97 , Saat: 01:39
Son Yorum: TheSteeL
Filmin Yayınlanma Tarihi: 2015
Yeni Ahit (Le tout nouveau testament) - 2015 - TR - BRRip XviD | tt3792960 TheSteeL 0 15 , Saat: 23:51
Son Yorum: TheSteeL
Filmin Yayınlanma Tarihi: 2015
Diriliş (The Revenant) - 2015 - TR - BRRip XviD | tt1663202 BroserBros 4 3,533 , Saat: 19:42
Son Yorum: BroserBros
Filmin Yayınlanma Tarihi: 2018
Adalet 2 (The Equalizer 2) - 2018 - TR - BRRip XviD | tt3766354 BroserBros 4 937 , Saat: 19:30
Son Yorum: BroserBros
Filmin Yayınlanma Tarihi: 2019
Aslan Kral (The Lion King) - 2019 - TR - BRRip XviD | tt6105098 BroserBros 10 2,199 , Saat: 19:18
Son Yorum: BroserBros

Hızlı Menü: