Filmbol Forum Film İndir 720P v Feride (Feride) - 2020 - TR+ORG - 720P

Premium Üyelik Al

Bildirimi Kapat
Mega linklerinin şikayet edilmemesi için global erişime kapatıp sadece yorum yapanlara açıyoruz. Bu linkleri gizleme işlemini mecburen yapıyoruz ve yorum yapmanızın siteye değil size faydası vardır. Teşekkürler yazmayı çok görüp, Random/Spam/Anlamsız mesajlar atarak forumu kirletip Mega linklerini açmaya çalışan kullanıcılara süresiz ban atacağız.


Feride (Feride) - 2020 - TR+ORG - 720P
BroserBros
Feride (Feride) - 2020 - TR+ORG - 720P
0
253
  • Derecelendirme: 0/5 - 0 oy
  • 1
  • 2
  • 3
  • 4
  • 5
Konuyu Okuyanlar:1 Ziyaretçi
Şuan Online!
Filmin Yayınlanma Tarihi: 2020 
WWW
Şuan Online!
BroserBros Kurucu Admin
*******
Admin








 Feride



Feride pekte mükemmel olmayan bir terzi de kendi çapında iyi bir işçidir. Feride patronu ile bir iddiaya girer ve bu iddia Feridenin boyunu aşacak düzeyde olup, çakma süper kahraman elbiseleri dikmektir...

Feride (2020) (Feride) Filmi Imdb'den 200 kişi tarafından oylandı ve 2,0 puan aldı. Bu film için editör puanı 4,0 olarak belirlendi. İyi Seyirler!

Teknik Detaylar

Kod :
General
Unique ID                                : 94979261407274360306660344869390695795 (0x47745722186F58C1D19E1B4489D0BD73)
Complete name                            : /root/Desktop/5/Feride.2020.720p.WEB-DL.x264.Yerli.Filmbol.mkv
Format                                  : Matroska
Format version                          : Version 4 / Version 2
File size                                : 1.16 GiB
Duration                                : 1h 35mn
Overall bit rate                        : 1 735 Kbps
Encoded date                            : UTC 2020-08-17 03:48:26
Writing application                      : mkvmerge v34.0.0 ('Sight and Seen') 64-bit
Writing library                          : libebml v1.3.7 + libmatroska v1.5.0

Video
ID                                      : 1
Format                                  : AVC
Format/Info                              : Advanced Video Codec
Format profile                          : [email protected]
Format settings, CABAC                  : Yes
Format settings, ReFrames                : 2 frames
Format settings, GOP                    : M=1, N=25
Codec ID                                : V_MPEG4/ISO/AVC
Duration                                : 1h 35mn
Bit rate                                : 1 349 Kbps
Width                                    : 1 280 pixels
Height                                  : 532 pixels
Display aspect ratio                    : 2.40:1
Frame rate mode                          : Constant
Frame rate                              : 25.000 fps
Color space                              : YUV
Chroma subsampling                      : 4:2:0
Bit depth                                : 8 bits
Scan type                                : Progressive
Bits/(Pixel*Frame)                      : 0.079
Stream size                              : 925 MiB (78%)
Language                                : English
Default                                  : Yes
Forced                                  : No

Audio
ID                                      : 2
Format                                  : AC-3
Format/Info                              : Audio Coding 3
Mode extension                          : CM (complete main)
Format settings, Endianness              : Big
Codec ID                                : A_AC3
Duration                                : 1h 35mn
Bit rate mode                            : Constant
Bit rate                                : 384 Kbps
Channel(s)                              : 6 channels
Channel positions                        : Front: L C R, Side: L R, LFE
Sampling rate                            : 48.0 KHz
Frame rate                              : 31.250 fps (1536 spf)
Compression mode                        : Lossy
Stream size                              : 263 MiB (22%)
Language                                : Turkish
Default                                  : Yes
Forced                                  : No

Menu
00:00:00.000                            : en:1
00:28:09.000                            : en:2
00:48:49.640                            : en:3
01:13:01.960                            : en:4
01:33:17.560                            : en:5

Film Detayları


 Feride

 Feride

 Feride


Film Fragmanı


Film Detayları

Uptobox ile indir

1Fichier ile indir

1Fichier'den İndiremiyor musun? Tıklayın!


Mega linki şuan da gizli. Kullanıma açmak için konuya yorum yapın ve ardından sayfayı yenileyin.

Mega


Bunun için üzgünüz ancak, bu linke sadece premium üyeler erişebilir.

Filmbol Cloud



Hızlı Menü: