Filmbol Forum Film İndir FHD - FULL HD v Mavi Korku 3 (Deep Blue Sea 3) - 2020 - TR+ORG - FHD - x264
Bildirimi Kapat
B1 arşivlerinin tamamını kaldırmaya başladık. Normal üyeler için B1 arşivleri yerini RAR formatına, premium üyeler için B1 arşivleri yerini sıkıştırılmamış (RAR,ZIP,B1 ile sıkıştırılmamış) dosyalara bırakacak.

Bildirimi Kapat
Merhaba , site giderlerini bir nebze olsun karşılamak adına link kısaltma servisleri kullanmaya başladık. İndirme linkleri sizi ouo.io adresinde yönlendirecek, 3 saniye geçtikten sonra Get Link butonuna tıklayarak linke ulaşacaksınız. Premium üyeler bu durumdan etkilenmeyecektir.

Premium Üyelik AlPremium Üyelik Al

Mavi Korku 3 (Deep Blue Sea 3) - 2020 - TR+ORG - FHD - x264
BroserBros
Mavi Korku 3 (Deep Blue Sea 3) - 2020 - TR+ORG - FHD - x264
0
1102
  • Derecelendirme: 0/5 - 0 oy
  • 1
  • 2
  • 3
  • 4
  • 5
Konuyu Okuyanlar:1 Ziyaretçi
Şuan Online!
Filmin Yayınlanma Tarihi: 2020 
Şuan Online!
BroserBros Kurucu Admin
*******
Admin


[süre]99 dakika[/süre]

[mkvac3][/mkvac3]




 Mavi Korku 3



Önde gelen deniz biyoloğu Emma Collins ve ekibi, okyanusun ortasında büyük beyaz köpekbalıklarının çiftleşme alanını gözlemledikleri bir laboratuvarı kurar. Ekip, iklim değişikliğinin köpekbalıkları üzerindeki etkilerini inceler. Ancak büyük köpekbalıkları da kendi evrimsel hedefleri ile oradalar; daha büyük beyaz köpekbalıkları ile melezlenmek.

Mavi Korku 3 (2020) (Deep Blue Sea 3) Filmi Imdb'den 4,000 kişi tarafından oylandı ve 4,6 puan aldı. Bu film için editör puanı 4,5 olarak belirlendi. İyi Seyirler!

Teknik Detaylar

Kod :
General
Unique ID                                : 326840358099211463391954759066011215093 (0xF5E329CC0BE4A8865490CDC117CAA4F5)
Complete name                            : /root/Desktop/3/Mavi.Korku.3.2020.FHD.BluRay.x264.TR.ENG.Filmbol.mkv
Format                                  : Matroska
Format version                          : Version 4 / Version 2
File size                                : 6.66 GiB
Duration                                : 1h 40mn
Overall bit rate                        : 9 521 Kbps
Movie name                              : Deep Blue Sea 3 - Mavi Korku 3 - 2020 | Filmbol.org
Encoded date                            : UTC 2020-10-02 11:31:12
Writing application                      : mkvmerge v8.8.0 ('Wind at my back') 64bit
Writing library                          : libebml v1.3.3 + libmatroska v1.4.4

Video
ID                                      : 1
Format                                  : AVC
Format/Info                              : Advanced Video Codec
Format profile                          : [email protected]
Format settings, CABAC                  : Yes
Format settings, ReFrames                : 5 frames
Codec ID                                : V_MPEG4/ISO/AVC
Duration                                : 1h 40mn
Bit rate                                : 8 687 Kbps
Width                                    : 1 920 pixels
Height                                  : 800 pixels
Display aspect ratio                    : 2.40:1
Frame rate mode                          : Constant
Frame rate                              : 23.976 (24000/1001) fps
Color space                              : YUV
Chroma subsampling                      : 4:2:0
Bit depth                                : 8 bits
Scan type                                : Progressive
Bits/(Pixel*Frame)                      : 0.236
Stream size                              : 6.08 GiB (91%)
Title                                    : Deep Blue Sea 3 - Mavi Korku 3 - 2020 | Filmbol.org
Writing library                          : x264 core 161 r3018 db0d417
Encoding settings                        : cabac=1 / ref=5 / deblock=1:-3:-3 / analyse=0x3:0x133 / me=umh / subme=9 / psy=1 / psy_rd=1.00:0.00 / mixed_ref=1 / me_range=32 / chroma_me=1 / trellis=2 / 8x8dct=1 / cqm=0 / deadzone=21,11 / fast_pskip=0 / chroma_qp_offset=-2 / threads=24 / lookahead_threads=2 / sliced_threads=0 / nr=0 / decimate=1 / interlaced=0 / bluray_compat=0 / constrained_intra=0 / bframes=3 / b_pyramid=2 / b_adapt=2 / b_bias=0 / direct=3 / weightb=1 / open_gop=0 / weightp=2 / keyint=250 / keyint_min=23 / scenecut=40 / intra_refresh=0 / rc=crf / mbtree=0 / crf=20.2 / qcomp=0.60 / qpmin=0 / qpmax=69 / qpstep=4 / ip_ratio=1.40 / pb_ratio=1.30 / aq=3:0.85
Default                                  : Yes
Forced                                  : No
Color range                              : Limited
Matrix coefficients                      : BT.709

Audio #1
ID                                      : 2
Format                                  : AC-3
Format/Info                              : Audio Coding 3
Mode extension                          : CM (complete main)
Format settings, Endianness              : Big
Codec ID                                : A_AC3
Duration                                : 1h 40mn
Bit rate mode                            : Constant
Bit rate                                : 192 Kbps
Channel(s)                              : 2 channels
Channel positions                        : Front: L R
Sampling rate                            : 48.0 KHz
Frame rate                              : 31.250 fps (1536 spf)
Compression mode                        : Lossy
Stream size                              : 138 MiB (2%)
Title                                    : Deep Blue Sea 3 - Mavi Korku 3 - 2020 | Filmbol.org
Language                                : Turkish
Default                                  : Yes
Forced                                  : No

Audio #2
ID                                      : 3
Format                                  : AC-3
Format/Info                              : Audio Coding 3
Mode extension                          : CM (complete main)
Format settings, Endianness              : Big
Codec ID                                : A_AC3
Duration                                : 1h 40mn
Bit rate mode                            : Constant
Bit rate                                : 640 Kbps
Channel(s)                              : 6 channels
Channel positions                        : Front: L C R, Side: L R, LFE
Sampling rate                            : 48.0 KHz
Frame rate                              : 31.250 fps (1536 spf)
Compression mode                        : Lossy
Stream size                              : 459 MiB (7%)
Title                                    : Deep Blue Sea 3 - Mavi Korku 3 - 2020 | Filmbol.org
Language                                : English
Default                                  : No
Forced                                  : No

Text
ID                                      : 4
Format                                  : UTF-8
Codec ID                                : S_TEXT/UTF8
Codec ID/Info                            : UTF-8 Plain Text
Duration                                : 1h 31mn
Bit rate                                : 51 bps
Count of elements                        : 1046
Stream size                              : 34.3 KiB (0%)
Title                                    : Deep Blue Sea 3 - Mavi Korku 3 - 2020 | Filmbol.org
Language                                : Turkish
Default                                  : No
Forced                                  : No

Film Detayları


 Mavi Korku 3

 Mavi Korku 3

 Mavi Korku 3


Film Fragmanı


Film İndir



Zip Şifresi: filmbol.org Aşağıdaki butona tıklayarak kopyalabilirsiniz.


Uptobox ile indir

1Fichier ile indir

1Fichier'den İndiremiyor musun? Tıklayın!






Filmbol Cloud

Bunun için üzgünüz ancak, bu linke sadece premium üyeler erişebilir.
WWW


Hızlı Menü: