Filmbol Forum Film İndir BRRip XviD v Mavi Korku 3 (Deep Blue Sea 3) - 2020 - TR - BRRip XviD
Bildirimi Kapat
B1 arşivlerinin tamamını kaldırmaya başladık. Normal üyeler için B1 arşivleri yerini RAR formatına, premium üyeler için B1 arşivleri yerini sıkıştırılmamış (RAR,ZIP,B1 ile sıkıştırılmamış) dosyalara bırakacak.

Bildirimi Kapat
Merhaba , site giderlerini bir nebze olsun karşılamak adına link kısaltma servisleri kullanmaya başladık. İndirme linkleri sizi ouo.io adresinde yönlendirecek, 3 saniye geçtikten sonra Get Link butonuna tıklayarak linke ulaşacaksınız. Premium üyeler bu durumdan etkilenmeyecektir.

Premium Üyelik AlPremium Üyelik Al

Mavi Korku 3 (Deep Blue Sea 3) - 2020 - TR - BRRip XviD
BroserBros
Mavi Korku 3 (Deep Blue Sea 3) - 2020 - TR - BRRip XviD
0
1021
  • Derecelendirme: 0/5 - 0 oy
  • 1
  • 2
  • 3
  • 4
  • 5
Konuyu Okuyanlar:1 Ziyaretçi
Şuan Online!
Filmin Yayınlanma Tarihi: 2020 
Şuan Online!
BroserBros Kurucu Admin
*******
Admin


[süre]99 dakika[/süre]

[avimp3][/avimp3]




 Mavi Korku 3



Önde gelen deniz biyoloğu Emma Collins ve ekibi, okyanusun ortasında büyük beyaz köpekbalıklarının çiftleşme alanını gözlemledikleri bir laboratuvarı kurar. Ekip, iklim değişikliğinin köpekbalıkları üzerindeki etkilerini inceler. Ancak büyük köpekbalıkları da kendi evrimsel hedefleri ile oradalar; daha büyük beyaz köpekbalıkları ile melezlenmek.

Mavi Korku 3 (2020) (Deep Blue Sea 3) Filmi Imdb'den 4,000 kişi tarafından oylandı ve 4,6 puan aldı. Bu film için editör puanı 4,5 olarak belirlendi. İyi Seyirler!

Teknik Detaylar

Kod :
General
Complete name                            : /root/Desktop/3/Mavi.Korku.3.2020.BRRip.XviD.TR.Filmbol.avi
Format                                  : AVI
Format/Info                              : Audio Video Interleave
File size                                : 1.22 GiB
Duration                                : 1h 40mn
Overall bit rate                        : 1 738 Kbps

Video
ID                                      : 0
Format                                  : MPEG-4 Visual
Format profile                          : [email protected]
Format settings, BVOP                    : No
Format settings, QPel                    : No
Format settings, GMC                    : No warppoints
Format settings, Matrix                  : Default (H.263)
Codec ID                                : XVID
Codec ID/Hint                            : XviD
Duration                                : 1h 40mn
Bit rate                                : 1 597 Kbps
Width                                    : 720 pixels
Height                                  : 300 pixels
Display aspect ratio                    : 2.40:1
Frame rate                              : 23.976 fps
Color space                              : YUV
Chroma subsampling                      : 4:2:0
Bit depth                                : 8 bits
Scan type                                : Progressive
Compression mode                        : Lossy
Bits/(Pixel*Frame)                      : 0.308
Stream size                              : 1.12 GiB (92%)
Writing library                          : Lavc58.35.100

Audio
ID                                      : 1
Format                                  : MPEG Audio
Format version                          : Version 1
Format profile                          : Layer 3
Mode                                    : Joint stereo
Mode extension                          : MS Stereo
Codec ID                                : 55
Codec ID/Hint                            : MP3
Duration                                : 1h 40mn
Bit rate mode                            : Constant
Bit rate                                : 128 Kbps
Channel(s)                              : 2 channels
Sampling rate                            : 48.0 KHz
Compression mode                        : Lossy
Stream size                              : 91.7 MiB (7%)
Alignment                                : Aligned on interleaves
Interleave, duration                    : 24 ms (0.58 video frame)
Writing library                          : LAME3.99.5

Film Detayları


 Mavi Korku 3

 Mavi Korku 3

 Mavi Korku 3


Film Fragmanı


Film İndir



Zip Şifresi: filmbol.org Aşağıdaki butona tıklayarak kopyalabilirsiniz.



Uptobox ile indir

1Fichier ile indir

1Fichier'den İndiremiyor musun? Tıklayın!






Filmbol Cloud

Bunun için üzgünüz ancak, bu linke sadece premium üyeler erişebilir.
WWW


Hızlı Menü: