Filmbol Forum Film İndir FHD - FULL HD v Sokak Dansı: Çin (Step Up China) - 2019 - TR+ORG - FHD - x264
Bildirimi Kapat
B1 arşivlerinin tamamını kaldırmaya başladık. Normal üyeler için B1 arşivleri yerini RAR formatına, premium üyeler için B1 arşivleri yerini sıkıştırılmamış (RAR,ZIP,B1 ile sıkıştırılmamış) dosyalara bırakacak.

Bildirimi Kapat
Merhaba , site giderlerini bir nebze olsun karşılamak adına link kısaltma servisleri kullanmaya başladık. İndirme linkleri sizi ouo.io adresinde yönlendirecek, 3 saniye geçtikten sonra Get Link butonuna tıklayarak linke ulaşacaksınız. Premium üyeler bu durumdan etkilenmeyecektir.

Premium Üyelik AlPremium Üyelik Al

Sokak Dansı: Çin (Step Up China) - 2019 - TR+ORG - FHD - x264
BroserBros
Sokak Dansı: Çin (Step Up China) - 2019 - TR+ORG - FHD - x264
0
255
  • Derecelendirme: 0/5 - 0 oy
  • 1
  • 2
  • 3
  • 4
  • 5
Konuyu Okuyanlar:1 Ziyaretçi
Şuan Online!
Filmin Yayınlanma Tarihi: 2019 
Şuan Online!
BroserBros Kurucu Admin
*******
Admin


[süre]100 dakika[/süre]

[mkvac3][/mkvac3]




 Sokak Dansı: Çin



Pek çok farklı görüşten insan bir araya gelerek grup oluştururlar. Grubun tek ortak noktası hepsi dansçıdır ve ülkenin en iyi dansçı grubu olmak için çabalarlar...

Sokak Dansı: Çin (2019) (Step Up China) Filmi Imdb'den 1,500 kişi tarafından oylandı ve 6,6 puan aldı. Bu film için editör puanı 6,0 olarak belirlendi. İyi Seyirler!

Teknik Detaylar

Kod :
General
Unique ID                                : 39129229017974525332357682122885822036 (0x1D7003F06127DF97AD322FF0BEEDF654)
Complete name                            : /root/Desktop/1/Sokak.Dansı.6.Çin.2019.FHD.WEB-DL.x264.TR.CH.Filmbol.mkv
Format                                  : Matroska
Format version                          : Version 4 / Version 2
File size                                : 3.13 GiB
Duration                                : 1h 30mn
Overall bit rate                        : 4 966 Kbps
Movie name                              : Sokak Dansı 6: Çin - Step Up China - 2019 | Filmbol.org
Encoded date                            : UTC 2020-08-02 08:47:25
Writing application                      : mkvmerge v8.8.0 ('Wind at my back') 64bit
Writing library                          : libebml v1.3.3 + libmatroska v1.4.4

Video
ID                                      : 1
Format                                  : AVC
Format/Info                              : Advanced Video Codec
Format profile                          : [email protected]
Format settings, CABAC                  : Yes
Format settings, ReFrames                : 5 frames
Codec ID                                : V_MPEG4/ISO/AVC
Duration                                : 1h 30mn
Bit rate                                : 4 580 Kbps
Width                                    : 1 912 pixels
Height                                  : 804 pixels
Display aspect ratio                    : 2.40:1
Frame rate mode                          : Constant
Frame rate                              : 23.976 (24000/1001) fps
Color space                              : YUV
Chroma subsampling                      : 4:2:0
Bit depth                                : 8 bits
Scan type                                : Progressive
Bits/(Pixel*Frame)                      : 0.124
Stream size                              : 2.89 GiB (92%)
Title                                    : Filmbol.org
Language                                : English
Default                                  : Yes
Forced                                  : No
Color range                              : Limited
Color primaries                          : BT.709
Transfer characteristics                : BT.709
Matrix coefficients                      : BT.709

Audio #1
ID                                      : 2
Format                                  : AC-3
Format/Info                              : Audio Coding 3
Mode extension                          : CM (complete main)
Format settings, Endianness              : Big
Codec ID                                : A_AC3
Duration                                : 1h 30mn
Bit rate mode                            : Constant
Bit rate                                : 192 Kbps
Channel(s)                              : 2 channels
Channel positions                        : Front: L R
Sampling rate                            : 48.0 KHz
Frame rate                              : 31.250 fps (1536 spf)
Compression mode                        : Lossy
Stream size                              : 124 MiB (4%)
Title                                    : Filmbol.org
Language                                : Turkish
Default                                  : Yes
Forced                                  : No

Audio #2
ID                                      : 3
Format                                  : AC-3
Format/Info                              : Audio Coding 3
Mode extension                          : CM (complete main)
Format settings, Endianness              : Big
Codec ID                                : A_AC3
Duration                                : 1h 30mn
Bit rate mode                            : Constant
Bit rate                                : 192 Kbps
Channel(s)                              : 2 channels
Channel positions                        : Front: L R
Sampling rate                            : 48.0 KHz
Frame rate                              : 31.250 fps (1536 spf)
Compression mode                        : Lossy
Stream size                              : 124 MiB (4%)
Title                                    : Filmbol.org
Language                                : Chinese
Default                                  : No
Forced                                  : No

Film Detayları


 Sokak Dansı: Çin

 Sokak Dansı: Çin

 Sokak Dansı: Çin


Film Fragmanı


Film İndir



Zip Şifresi: filmbol.org Aşağıdaki butona tıklayarak kopyalabilirsiniz.





Filmbol Cloud

Bunun için üzgünüz ancak, bu linke sadece premium üyeler erişebilir.
WWW


Hızlı Menü: