Filmbol Forum Film İndir 1080P v Özgürlük Listesi (The F**k-It List) - 2020 - TR+ORG - 1080P
Bildirimi Kapat
B1 arşivlerinin tamamını kaldırmaya başladık. Normal üyeler için B1 arşivleri yerini RAR formatına, premium üyeler için B1 arşivleri yerini sıkıştırılmamış (RAR,ZIP,B1 ile sıkıştırılmamış) dosyalara bırakacak.

Bildirimi Kapat
Merhaba , site giderlerini bir nebze olsun karşılamak adına link kısaltma servisleri kullanmaya başladık. İndirme linkleri sizi ouo.io adresinde yönlendirecek, 3 saniye geçtikten sonra Get Link butonuna tıklayarak linke ulaşacaksınız. Premium üyeler bu durumdan etkilenmeyecektir.

Premium Üyelik AlPremium Üyelik Al

Özgürlük Listesi (The F**k-It List) - 2020 - TR+ORG - 1080P
BroserBros
Özgürlük Listesi (The F**k-It List) - 2020 - TR+ORG - 1080P
2
355
  • Derecelendirme: 0/5 - 0 oy
  • 1
  • 2
  • 3
  • 4
  • 5
Konuyu Okuyanlar:1 Ziyaretçi
Şuan Online!
Filmin Yayınlanma Tarihi: 2020 
Şuan Online!
BroserBros Kurucu Admin
*******
Admin


[süre]103 dakika[/süre]

[mkvac3][/mkvac3]




 Özgürlük Listesi



Bir lise son sınıf öğrencisi hayattan o kadar bıkmıştır ki, aslında yapmak istediği ve yapamadığı şeylerin bir listesini yapmaya karar verir...

Özgürlük Listesi (2020) (The F**k-It List) Filmi Imdb'den 1,000 kişi tarafından oylandı ve 5,2 puan aldı. Bu film için editör puanı 5,0 olarak belirlendi. İyi Seyirler!

Teknik Detaylar

Kod :
General
Unique ID                                : 239958810303435804513045893679251170974 (0xB48662C4FCD3CC22DAA9E1EA2A17A69E)
Complete name                            : /root/Desktop/2/Ozgürlük.Listesi.2020.1080p.WEB-DL.x264.TR.ENG.Filmbol.mkv
Format                                  : Matroska
Format version                          : Version 4 / Version 2
File size                                : 2.04 GiB
Duration                                : 1h 43mn
Overall bit rate                        : 2 829 Kbps
Movie name                              : Özgürlük Listesi - The F**k It List - 2020 | Filmbol.org
Encoded date                            : UTC 2020-07-10 09:25:38
Writing application                      : mkvmerge v8.8.0 ('Wind at my back') 64bit
Writing library                          : libebml v1.3.3 + libmatroska v1.4.4

Video
ID                                      : 1
Format                                  : AVC
Format/Info                              : Advanced Video Codec
Format profile                          : [email protected]
Format settings, CABAC                  : Yes
Format settings, ReFrames                : 4 frames
Codec ID                                : V_MPEG4/ISO/AVC
Duration                                : 1h 43mn
Bit rate                                : 2 250 Kbps
Width                                    : 1 920 pixels
Height                                  : 800 pixels
Display aspect ratio                    : 2.40:1
Frame rate mode                          : Constant
Frame rate                              : 23.976 (24000/1001) fps
Color space                              : YUV
Chroma subsampling                      : 4:2:0
Bit depth                                : 8 bits
Scan type                                : Progressive
Bits/(Pixel*Frame)                      : 0.061
Stream size                              : 1.63 GiB (80%)
Title                                    : Filmbol.org
Writing library                          : x264 core 158
Encoding settings                        : cabac=1 / ref=4 / deblock=1:-1:-1 / analyse=0x3:0x133 / me=umh / subme=9 / psy=1 / psy_rd=1.00:0.15 / mixed_ref=1 / me_range=24 / chroma_me=1 / trellis=2 / 8x8dct=1 / cqm=0 / deadzone=21,11 / fast_pskip=0 / chroma_qp_offset=-3 / threads=18 / lookahead_threads=1 / sliced_threads=0 / nr=0 / decimate=1 / interlaced=0 / bluray_compat=0 / constrained_intra=0 / bframes=3 / b_pyramid=2 / b_adapt=2 / b_bias=0 / direct=3 / weightb=1 / open_gop=0 / weightp=2 / keyint=250 / keyint_min=23 / scenecut=40 / intra_refresh=0 / rc_lookahead=60 / rc=2pass / mbtree=1 / bitrate=2250 / ratetol=1.0 / qcomp=0.60 / qpmin=0 / qpmax=69 / qpstep=4 / cplxblur=20.0 / qblur=0.5 / vbv_maxrate=31250 / vbv_bufsize=31250 / nal_hrd=none / filler=0 / ip_ratio=1.40 / aq=1:1.00
Default                                  : Yes
Forced                                  : No

Audio #1
ID                                      : 2
Format                                  : AC-3
Format/Info                              : Audio Coding 3
Mode extension                          : CM (complete main)
Format settings, Endianness              : Big
Codec ID                                : A_AC3
Duration                                : 1h 43mn
Bit rate mode                            : Constant
Bit rate                                : 384 Kbps
Channel(s)                              : 6 channels
Channel positions                        : Front: L C R, Side: L R, LFE
Sampling rate                            : 48.0 KHz
Frame rate                              : 31.250 fps (1536 spf)
Compression mode                        : Lossy
Stream size                              : 284 MiB (14%)
Title                                    : Filmbol.org
Language                                : Turkish
Default                                  : Yes
Forced                                  : No

Audio #2
ID                                      : 3
Format                                  : AC-3
Format/Info                              : Audio Coding 3
Mode extension                          : CM (complete main)
Format settings, Endianness              : Big
Codec ID                                : A_AC3
Duration                                : 1h 43mn
Bit rate mode                            : Constant
Bit rate                                : 192 Kbps
Channel(s)                              : 2 channels
Channel positions                        : Front: L R
Sampling rate                            : 48.0 KHz
Frame rate                              : 31.250 fps (1536 spf)
Compression mode                        : Lossy
Stream size                              : 142 MiB (7%)
Title                                    : Filmbol.org
Language                                : English
Default                                  : No
Forced                                  : No

Text #1
ID                                      : 4
Format                                  : UTF-8
Codec ID                                : S_TEXT/UTF8
Codec ID/Info                            : UTF-8 Plain Text
Duration                                : 1h 41mn
Bit rate                                : 3 bps
Count of elements                        : 71
Stream size                              : 2.55 KiB (0%)
Title                                    : Filmbol.org
Language                                : Turkish
Default                                  : Yes
Forced                                  : No

Text #2
ID                                      : 5
Format                                  : UTF-8
Codec ID                                : S_TEXT/UTF8
Codec ID/Info                            : UTF-8 Plain Text
Duration                                : 1h 42mn
Bit rate                                : 74 bps
Count of elements                        : 1407
Stream size                              : 55.9 KiB (0%)
Title                                    : Filmbol.org
Language                                : Turkish
Default                                  : No
Forced                                  : No

Film Detayları


 Özgürlük Listesi

 Özgürlük Listesi

 Özgürlük Listesi


Film Fragmanı


Film İndir



Zip Şifresi: filmbol.org Aşağıdaki butona tıklayarak kopyalabilirsiniz.


Uptobox ile indir

1Fichier ile indir

1Fichier'den İndiremiyor musun? Tıklayın!






Filmbol Cloud

Bunun için üzgünüz ancak, bu linke sadece premium üyeler erişebilir.
WWW
Şuan Online!
Şuan Online!
BroserBros Kurucu Admin
*******
Admin
19.01.2021 Yönetici Notu:

Kırık linkler kontrol edildi, kaldırıldı ve yenilendi. Tüm linkler tamamen çalışır durumda.
Şuan Offine!
Şuan Offine!
pars67 Yeni Üye
*
Üye
  • Konular0
  • Mesajlar68
  • Rep puanı 0
Teşekkürler.


Hızlı Menü: