Filmbol Forum Film İndir BRRip XviD v Bıçaklar Çekildi (Knives Out) - 2019 - TR - BRRip XviD
Bildirimi Kapat
Üyelik alımları açıldı.


Bildirimi Kapat
Mega linklerinin şikayet edilmemesi için global erişime kapatıp sadece yorum yapanlara açıyoruz. Bu linkleri gizleme işlemini mecburen yapıyoruz ve yorum yapmanızın siteye değil size faydası vardır. Teşekkürler yazmayı çok görüp, Random/Spam/Anlamsız mesajlar atarak forumu kirletip Mega linklerini açmaya çalışan kullanıcılara süresiz ban atacağız.

Premium Üyelik Al

Bıçaklar Çekildi (Knives Out) - 2019 - TR - BRRip XviD
BroserBros
Bıçaklar Çekildi (Knives Out) - 2019 - TR - BRRip XviD
4
622
  • Derecelendirme: 0/5 - 0 oy
  • 1
  • 2
  • 3
  • 4
  • 5
Konuyu Okuyanlar:1 Ziyaretçi
Şuan Online!
Filmin Yayınlanma Tarihi: 2019 
WWW
Şuan Online!
BroserBros Kurucu Admin
*******
Admin








 Bıçaklar Çekildi



Thrombey'in çok garip ölümü tamamen bir sır gibidir ve defektif'de bu işi açığa çıkarmada gayet gayretlidir. Fakat iş sorgulama kısmına geldiğinde aile tamamen bir baş belasıdır ve hiç bir işe yaramazlar...

Bıçaklar Çekildi (2019) (Knives Out) Filmi Imdb'den 350,000 kişi tarafından oylandı ve 7,9 puan aldı. Bu film için editör puanı 8,0 olarak belirlendi. İyi Seyirler!

Teknik Detaylar

Kod :
General
Complete name                            : /root/Desktop/3/Bıçaklar.Çekildi.2019.BRRip.XviD.TR.Filmbol.avi
Format                                  : AVI
Format/Info                              : Audio Video Interleave
File size                                : 1.58 GiB
Duration                                : 2h 10mn
Overall bit rate                        : 1 740 Kbps

Video
ID                                      : 0
Format                                  : MPEG-4 Visual
Format profile                          : [email protected]
Format settings, BVOP                    : No
Format settings, QPel                    : No
Format settings, GMC                    : No warppoints
Format settings, Matrix                  : Default (H.263)
Codec ID                                : XVID
Codec ID/Hint                            : XviD
Duration                                : 2h 10mn
Bit rate                                : 1 599 Kbps
Width                                    : 720 pixels
Height                                  : 388 pixels
Display aspect ratio                    : 1.85:1
Frame rate                              : 23.976 fps
Color space                              : YUV
Chroma subsampling                      : 4:2:0
Bit depth                                : 8 bits
Scan type                                : Progressive
Compression mode                        : Lossy
Bits/(Pixel*Frame)                      : 0.239
Stream size                              : 1.45 GiB (92%)
Writing library                          : Lavc58.35.100

Audio
ID                                      : 1
Format                                  : MPEG Audio
Format version                          : Version 1
Format profile                          : Layer 3
Mode                                    : Joint stereo
Mode extension                          : MS Stereo
Codec ID                                : 55
Codec ID/Hint                            : MP3
Duration                                : 2h 10mn
Bit rate mode                            : Constant
Bit rate                                : 128 Kbps
Channel(s)                              : 2 channels
Sampling rate                            : 48.0 KHz
Compression mode                        : Lossy
Stream size                              : 119 MiB (7%)
Alignment                                : Aligned on interleaves
Interleave, duration                    : 24 ms (0.58 video frame)

Film Detayları


 Bıçaklar Çekildi

 Bıçaklar Çekildi

 Bıçaklar Çekildi


Film Fragmanı


Film Detayları



Zip Şifresi: filmbol.org Aşağıdaki butona tıklayarak kopyalabilirsiniz.



Uptobox ile indir

1Fichier ile indir

1Fichier'den İndiremiyor musun? Tıklayın!


Mega linki şuan da gizli. Kullanıma açmak için konuya yorum yapın ve ardından sayfayı yenileyin.

Mega


Bunun için üzgünüz ancak, bu linke sadece premium üyeler erişebilir.

Filmbol Cloud

Şuan Offine!
Şuan Offine!
doniedarko Yeni Üye
*
Üye

  • Konular0
  • Mesajlar3
  • Rep puanı 0
Linkleri güncelleyebilirmisin lütfen.Şimdiden teşekkürler
Şuan Online!
Şuan Online!
BroserBros Kurucu Admin
*******
Admin

19.01.2021 Yönetici Notu:

Kırık linkler kontrol edildi, kaldırıldı ve yenilendi. Tüm linkler tamamen çalışır durumda.
Şuan Offine!
Şuan Offine!
wert1985 Uzman Üye
**
Uzman Üye

  • Konular0
  • Mesajlar7
  • Rep puanı 0
........
Şuan Offine!
Şuan Offine!
Yusuf Selahattin Uzman Üye
**
Uzman Üye

  • Konular0
  • Mesajlar18
  • Rep puanı 0
teşekkürler

link kırık


Hızlı Menü: