Filmbol Forum Film İndir 1080P v Yarına Tek Bilet (One Way to Tomorrow) - 2020 - TR+ORG - 1080P
Bildirimi Kapat
Üyelik alımları açıldı.


Bildirimi Kapat
Mega linklerinin şikayet edilmemesi için global erişime kapatıp sadece yorum yapanlara açıyoruz. Bu linkleri gizleme işlemini mecburen yapıyoruz ve yorum yapmanızın siteye değil size faydası vardır. Teşekkürler yazmayı çok görüp, Random/Spam/Anlamsız mesajlar atarak forumu kirletip Mega linklerini açmaya çalışan kullanıcılara süresiz ban atacağız.

Premium Üyelik Al

Yarına Tek Bilet (One Way to Tomorrow) - 2020 - TR+ORG - 1080P
BroserBros
Yarına Tek Bilet (One Way to Tomorrow) - 2020 - TR+ORG - 1080P
2
405
  • Derecelendirme: 0/5 - 0 oy
  • 1
  • 2
  • 3
  • 4
  • 5
Konuyu Okuyanlar:1 Ziyaretçi
Şuan Online!
Filmin Yayınlanma Tarihi: 2020 
WWW
Şuan Online!
BroserBros Kurucu Admin
*******
Admin








 Yarına Tek Bilet



İki yabancı, tek yataklı vagon ve uzun süreli bir tren yolculuğu. Bu iki yabancıyı başka bir yerde bir araya getirseydiniz yüksek ihtimalle birbirlerine en fazla dakikalar sürecek kadar katlanabilirlerdi. Ancak bu ikili trende bir araya geldiğinde uzun soluklu tartışmaların ve atışmaların ardından birbirlerini sevmeye başlarlar...

Yarına Tek Bilet (2020) (One Way to Tomorrow) Filmi Imdb'den 3,000 kişi tarafından oylandı ve 5,7 puan aldı. Bu film için editör puanı 6,2 olarak belirlendi. İyi Seyirler!

Teknik Detaylar

Kod :
General
Unique ID                                : 281630156988469436084452947385246993165 (0xD3DFFEC945777EF853261183A9E6CB0D)
Complete name                            : /root/Desktop/3/Yarına.Tek.Bilet.2020.1080p.WEB-DL.x264.Yerli.mkv
Format                                  : Matroska
Format version                          : Version 4 / Version 2
File size                                : 1.58 GiB
Duration                                : 1h 30mn
Overall bit rate                        : 2 507 Kbps
Movie name                              : Yarına Tek Bilet - 2020 | Filmbol.org
Encoded date                            : UTC 2020-06-28 12:29:35
Writing application                      : mkvmerge v8.8.0 ('Wind at my back') 64bit
Writing library                          : libebml v1.3.3 + libmatroska v1.4.4

Video
ID                                      : 1
Format                                  : AVC
Format/Info                              : Advanced Video Codec
Format profile                          : [email protected]
Format settings, CABAC                  : Yes
Format settings, ReFrames                : 3 frames
Codec ID                                : V_MPEG4/ISO/AVC
Duration                                : 1h 30mn
Bit rate                                : 2 121 Kbps
Width                                    : 1 920 pixels
Height                                  : 1 080 pixels
Display aspect ratio                    : 16:9
Frame rate mode                          : Constant
Frame rate                              : 24.000 fps
Color space                              : YUV
Chroma subsampling                      : 4:2:0
Bit depth                                : 8 bits
Scan type                                : Progressive
Bits/(Pixel*Frame)                      : 0.043
Stream size                              : 1.34 GiB (85%)
Title                                    : Filmbol.org
Default                                  : Yes
Forced                                  : No

Audio
ID                                      : 2
Format                                  : AC-3
Format/Info                              : Audio Coding 3
Mode extension                          : CM (complete main)
Format settings, Endianness              : Big
Codec ID                                : A_AC3
Duration                                : 1h 30mn
Bit rate mode                            : Constant
Bit rate                                : 384 Kbps
Channel(s)                              : 6 channels
Channel positions                        : Front: L C R, Side: L R, LFE
Sampling rate                            : 48.0 KHz
Frame rate                              : 31.250 fps (1536 spf)
Compression mode                        : Lossy
Stream size                              : 248 MiB (15%)
Title                                    : Filmbol.org
Language                                : Turkish
Default                                  : Yes
Forced                                  : No

Text
ID                                      : 3
Format                                  : UTF-8
Codec ID                                : S_TEXT/UTF8
Codec ID/Info                            : UTF-8 Plain Text
Duration                                : 1h 10mn
Bit rate                                : 6 bps
Count of elements                        : 88
Stream size                              : 3.43 KiB (0%)
Title                                    : Filmbol.org
Language                                : Turkish
Default                                  : Yes
Forced                                  : No

Film Detayları


 Yarına Tek Bilet

 Yarına Tek Bilet

 Yarına Tek Bilet


Film Fragmanı


Film Detayları



Zip Şifresi: filmbol.org Aşağıdaki butona tıklayarak kopyalabilirsiniz.


Uptobox ile indir

1Fichier ile indir

1Fichier'den İndiremiyor musun? Tıklayın!


Mega linki şuan da gizli. Kullanıma açmak için konuya yorum yapın ve ardından sayfayı yenileyin.

Mega


Bunun için üzgünüz ancak, bu linke sadece premium üyeler erişebilir.

Filmbol Cloud

Şuan Online!
Şuan Online!
BroserBros Kurucu Admin
*******
Admin

19.01.2021 Yönetici Notu:

Kırık linkler kontrol edildi, kaldırıldı ve yenilendi. Tüm linkler tamamen çalışır durumda.
Şuan Offine!
Şuan Offine!
muradims Yeni Üye
*
Üye

  • Konular0
  • Mesajlar5
  • Rep puanı 0
teşekkürler


Hızlı Menü: