Filmbol Forum Film İndir 1080P v 365 Dni (365 Days - 365 Gün) - 2020 - TR+ORG - 1080P
Bildirimi Kapat
B1 arşivlerinin tamamını kaldırmaya başladık. Normal üyeler için B1 arşivleri yerini RAR formatına, premium üyeler için B1 arşivleri yerini sıkıştırılmamış (RAR,ZIP,B1 ile sıkıştırılmamış) dosyalara bırakacak.

Bildirimi Kapat
Merhaba , site giderlerini bir nebze olsun karşılamak adına link kısaltma servisleri kullanmaya başladık. İndirme linkleri sizi ouo.io adresinde yönlendirecek, 3 saniye geçtikten sonra Get Link butonuna tıklayarak linke ulaşacaksınız. Premium üyeler bu durumdan etkilenmeyecektir.

Premium Üyelik AlPremium Üyelik Al

365 Dni (365 Days - 365 Gün) - 2020 - TR+ORG - 1080P
BroserBros
365 Dni (365 Days - 365 Gün) - 2020 - TR+ORG - 1080P
4
824
  • Derecelendirme: 0/5 - 0 oy
  • 1
  • 2
  • 3
  • 4
  • 5
Konuyu Okuyanlar:1 Ziyaretçi
Şuan Online!
Filmin Yayınlanma Tarihi: 2020 
Şuan Online!
BroserBros Kurucu Admin
*******
Admin


[süre]114 dakika[/süre]

[mkvac3][/mkvac3]




 365 Dni



Zorla güzellik olmaz mı? Tekrar düşünün. Massimo babasının ölmünün ardından boşlukta olan sistemin başına geçer ve aslında Massimonun babası bir Sicilya Mafyasıdır. Laura ise genç ve güzel bir kızdır ve bir gün Massimo ile karşılaştığımda Massimo ondan etkilenir ve kaçırır. Görünüşe göre Laura Massimo için aynı duyguyu beslememektedir ancak bölgenin en güçlü adamı olan Massimo kendine aşık olması için Laura'ya 365 Gün zaman tanır...

365 Dni (2020) (365 Days - 365 Gün) Filmi Imdb'den 13,000 kişi tarafından oylandı ve 3,6 puan aldı. Bu film için editör puanı 5,0 olarak belirlendi. İyi Seyirler!

Teknik Detaylar

Kod :
General
Unique ID                                : 10863601128267370715568371053440949639 (0x82C40E38523F75E2E3734C7A7825D87)
Complete name                            : /root/Desktop/3/365.Dni.2020.1080p.WEB-DL.x264.TR.POL.Filmbol.mkv
Format                                  : Matroska
Format version                          : Version 4 / Version 2
File size                                : 2.25 GiB
Duration                                : 1h 54mn
Overall bit rate                        : 2 823 Kbps
Movie name                              : 365 Dni - 365 Days - 2020 | Filmbol.org
Encoded date                            : UTC 2020-06-16 16:31:31
Writing application                      : mkvmerge v8.8.0 ('Wind at my back') 64bit
Writing library                          : libebml v1.3.3 + libmatroska v1.4.4

Video
ID                                      : 1
Format                                  : AVC
Format/Info                              : Advanced Video Codec
Format profile                          : [email protected]
Format settings, CABAC                  : Yes
Format settings, ReFrames                : 4 frames
Codec ID                                : V_MPEG4/ISO/AVC
Duration                                : 1h 53mn
Bit rate                                : 2 250 Kbps
Width                                    : 1 920 pixels
Height                                  : 1 072 pixels
Display aspect ratio                    : 16:9
Frame rate mode                          : Constant
Frame rate                              : 24.000 fps
Color space                              : YUV
Chroma subsampling                      : 4:2:0
Bit depth                                : 8 bits
Scan type                                : Progressive
Bits/(Pixel*Frame)                      : 0.046
Stream size                              : 1.79 GiB (80%)
Title                                    : Filmbol.org
Writing library                          : x264 core 159
Encoding settings                        : cabac=1 / ref=4 / deblock=1:-1:-1 / analyse=0x3:0x133 / me=umh / subme=9 / psy=1 / psy_rd=1.00:0.15 / mixed_ref=1 / me_range=24 / chroma_me=1 / trellis=2 / 8x8dct=1 / cqm=0 / deadzone=21,11 / fast_pskip=0 / chroma_qp_offset=-3 / threads=18 / lookahead_threads=1 / sliced_threads=0 / nr=0 / decimate=1 / interlaced=0 / bluray_compat=0 / constrained_intra=0 / bframes=3 / b_pyramid=2 / b_adapt=2 / b_bias=0 / direct=3 / weightb=1 / open_gop=0 / weightp=2 / keyint=250 / keyint_min=23 / scenecut=40 / intra_refresh=0 / rc_lookahead=60 / rc=2pass / mbtree=1 / bitrate=2250 / ratetol=1.0 / qcomp=0.60 / qpmin=0 / qpmax=69 / qpstep=4 / cplxblur=20.0 / qblur=0.5 / vbv_maxrate=31250 / vbv_bufsize=31250 / nal_hrd=none / filler=0 / ip_ratio=1.40 / aq=1:1.00
Default                                  : Yes
Forced                                  : No

Audio #1
ID                                      : 2
Format                                  : AC-3
Format/Info                              : Audio Coding 3
Mode extension                          : CM (complete main)
Format settings, Endianness              : Big
Codec ID                                : A_AC3
Duration                                : 1h 54mn
Bit rate mode                            : Constant
Bit rate                                : 384 Kbps
Channel(s)                              : 6 channels
Channel positions                        : Front: L C R, Side: L R, LFE
Sampling rate                            : 48.0 KHz
Frame rate                              : 31.250 fps (1536 spf)
Compression mode                        : Lossy
Stream size                              : 314 MiB (14%)
Title                                    : Filmbol.org
Language                                : Turkish
Default                                  : Yes
Forced                                  : No

Audio #2
ID                                      : 3
Format                                  : AC-3
Format/Info                              : Audio Coding 3
Mode extension                          : CM (complete main)
Format settings, Endianness              : Big
Codec ID                                : A_AC3
Duration                                : 1h 54mn
Bit rate mode                            : Constant
Bit rate                                : 192 Kbps
Channel(s)                              : 2 channels
Channel positions                        : Front: L R
Sampling rate                            : 48.0 KHz
Frame rate                              : 31.250 fps (1536 spf)
Compression mode                        : Lossy
Stream size                              : 157 MiB (7%)
Title                                    : Filmbol.org
Language                                : Polish
Default                                  : No
Forced                                  : No

Text #1
ID                                      : 4
Format                                  : UTF-8
Codec ID                                : S_TEXT/UTF8
Codec ID/Info                            : UTF-8 Plain Text
Duration                                : 1h 53mn
Bit rate                                : 11 bps
Count of elements                        : 315
Stream size                              : 9.14 KiB (0%)
Title                                    : Filmbol.org
Language                                : Turkish
Default                                  : Yes
Forced                                  : Yes

Text #2
ID                                      : 5
Format                                  : UTF-8
Codec ID                                : S_TEXT/UTF8
Codec ID/Info                            : UTF-8 Plain Text
Duration                                : 1h 53mn
Bit rate                                : 27 bps
Count of elements                        : 807
Stream size                              : 22.8 KiB (0%)
Title                                    : Filmbol.org
Language                                : Turkish
Default                                  : No
Forced                                  : No

Film Detayları


 365 Dni

 365 Dni

 365 Dni


Film Fragmanı


Film İndir



Zip Şifresi: filmbol.org Aşağıdaki butona tıklayarak kopyalabilirsiniz.


Uptobox ile indir

1Fichier ile indir

1Fichier'den İndiremiyor musun? Tıklayın!






Filmbol Cloud

Bunun için üzgünüz ancak, bu linke sadece premium üyeler erişebilir.
WWW
Şuan Online!
Şuan Online!
BroserBros Kurucu Admin
*******
Admin
21.01.2021 Yönetici Notu:

Kırık linkler kontrol edildi, kaldırıldı ve yenilendi. Tüm linkler tamamen çalışır durumda.
Şuan Offine!
Şuan Offine!
Reha Yeni Üye
*
Üye
  • Konular0
  • Mesajlar1
  • Rep puanı 0
(21-01-2021, Saat: 13:40)BroserBros Adlı Kullanıcıdan Alıntı: 21.01.2021 Yönetici Notu:

Kırık linkler kontrol edildi, kaldırıldı ve yenilendi. Tüm linkler tamamen çalışır durumda.
Güzel film teşekkürler
Şuan Online!
Şuan Online!
TheSteeL Chief Executive Officer
******
CEO
(25-05-2021, Saat: 00:46)Reha Adlı Kullanıcıdan Alıntı:
(21-01-2021, Saat: 13:40)BroserBros Adlı Kullanıcıdan Alıntı: 21.01.2021 Yönetici Notu:

Kırık linkler kontrol edildi, kaldırıldı ve yenilendi. Tüm linkler tamamen çalışır durumda.
Güzel film teşekkürler
İyi Seyirler
Şuan Offine!
Şuan Offine!
olguhash Yeni Üye
*
Üye
  • Konular0
  • Mesajlar1
  • Rep puanı 0
çok iyi filim teşekkür ederim


Hızlı Menü: