Filmbol Forum Film İndir BRRip XviD v Banana Split (Banana Split) - 2018 - TR - BRRip XviD
Bildirimi Kapat
Üyelik alımları açıldı.


Bildirimi Kapat
Mega linklerinin şikayet edilmemesi için global erişime kapatıp sadece yorum yapanlara açıyoruz. Bu linkleri gizleme işlemini mecburen yapıyoruz ve yorum yapmanızın siteye değil size faydası vardır. Teşekkürler yazmayı çok görüp, Random/Spam/Anlamsız mesajlar atarak forumu kirletip Mega linklerini açmaya çalışan kullanıcılara süresiz ban atacağız.

Premium Üyelik Al

Banana Split (Banana Split) - 2018 - TR - BRRip XviD
BroserBros
Banana Split (Banana Split) - 2018 - TR - BRRip XviD
1
318
  • Derecelendirme: 0/5 - 0 oy
  • 1
  • 2
  • 3
  • 4
  • 5
Konuyu Okuyanlar:2 Ziyaretçi
Şuan Online!
Filmin Yayınlanma Tarihi: 2018 
WWW
Şuan Online!
BroserBros Kurucu Admin
*******
Admin








 Banana Split



Banana Split, eski erkek arkadaşının sevgilisi ile arasında beklenmediik bir bağ kuran genç bir kızın hikayesini konu ediyor. Genç bir kız olan April, lisenin son iki yılını sevgilisi Nick ile birlikte geçirir. Ancak mezuniyet partisinin ardından çiftin yolları ayrılır. Bir süre sonra April, Nick'in yeni bir kız arkadaşı olduğunu öğrenince adeta yıkılır. Ancak Nick'in kız arkadaşı Clara ile April arasında beklenmedik şekilde gelişen olayların ardından bir dostluk başlar.

Banana Split (2018) (Banana Split) Filmi Imdb'den 1,000 kişi tarafından oylandı ve 6,1 puan aldı. Bu film için editör puanı 5,9 olarak belirlendi. İyi Seyirler!

Teknik Detaylar

Kod :
General
Complete name                            : /root/Desktop/6/Banana.Split.2018.HDRip.XViD.TR.Filmbol.avi
Format                                  : AVI
Format/Info                              : Audio Video Interleave
File size                                : 970 MiB
Duration                                : 1h 23mn
Overall bit rate                        : 1 625 Kbps

Video
ID                                      : 0
Format                                  : MPEG-4 Visual
Format profile                          : [email protected]
Format settings, BVOP                    : No
Format settings, QPel                    : No
Format settings, GMC                    : No warppoints
Format settings, Matrix                  : Default (H.263)
Codec ID                                : XVID
Codec ID/Hint                            : XviD
Duration                                : 1h 23mn
Bit rate                                : 1 484 Kbps
Width                                    : 720 pixels
Height                                  : 298 pixels
Display aspect ratio                    : 2.40:1
Frame rate                              : 23.976 fps
Color space                              : YUV
Chroma subsampling                      : 4:2:0
Bit depth                                : 8 bits
Scan type                                : Progressive
Compression mode                        : Lossy
Bits/(Pixel*Frame)                      : 0.288
Stream size                              : 886 MiB (91%)
Writing library                          : Lavc58.1.100

Audio
ID                                      : 1
Format                                  : MPEG Audio
Format version                          : Version 1
Format profile                          : Layer 3
Mode                                    : Joint stereo
Mode extension                          : MS Stereo
Codec ID                                : 55
Codec ID/Hint                            : MP3
Duration                                : 1h 23mn
Bit rate mode                            : Constant
Bit rate                                : 128 Kbps
Channel(s)                              : 2 channels
Sampling rate                            : 48.0 KHz
Compression mode                        : Lossy
Stream size                              : 76.5 MiB (8%)
Alignment                                : Aligned on interleaves
Interleave, duration                    : 24 ms (0.58 video frame)

Film Detayları


 Banana Split

 Banana Split

 Banana Split


Film Fragmanı


Film Detayları



Zip Şifresi: filmbol.org Aşağıdaki butona tıklayarak kopyalabilirsiniz.



Uptobox ile indir

1Fichier ile indir

1Fichier'den İndiremiyor musun? Tıklayın!


Mega linki şuan da gizli. Kullanıma açmak için konuya yorum yapın ve ardından sayfayı yenileyin.

Mega


Bunun için üzgünüz ancak, bu linke sadece premium üyeler erişebilir.

Filmbol Cloud

Şuan Online!
Şuan Online!
BroserBros Kurucu Admin
*******
Admin

22.01.2021 Yönetici Notu:

Kırık linkler kontrol edildi, kaldırıldı ve yenilendi. Tüm linkler tamamen çalışır durumda.


Hızlı Menü: