Filmbol Forum Film İndir FHD - FULL HD v Matthias ve Maxime (Matthias et Maxime) - 2019 - TR+ORG - FHD - x264
Bildirimi Kapat
Üyelik alımları açıldı.


Bildirimi Kapat
Mega linklerinin şikayet edilmemesi için global erişime kapatıp sadece yorum yapanlara açıyoruz. Bu linkleri gizleme işlemini mecburen yapıyoruz ve yorum yapmanızın siteye değil size faydası vardır. Teşekkürler yazmayı çok görüp, Random/Spam/Anlamsız mesajlar atarak forumu kirletip Mega linklerini açmaya çalışan kullanıcılara süresiz ban atacağız.

Premium Üyelik Al

Matthias ve Maxime (Matthias et Maxime) - 2019 - TR+ORG - FHD - x264
BroserBros
Matthias ve Maxime (Matthias et Maxime) - 2019 - TR+ORG - FHD - x264
0
277
  • Derecelendirme: 0/5 - 0 oy
  • 1
  • 2
  • 3
  • 4
  • 5
Konuyu Okuyanlar:1 Ziyaretçi
Şuan Online!
Filmin Yayınlanma Tarihi: 2019 
WWW
Şuan Online!
BroserBros Kurucu Admin
*******
Admin








 Matthias ve Maxime



Matthias ve Maxime uzun yıllar boyunca arkadaştır ve onların bu bağların koparabilecek hiç bir şey yoktur. İkisi de oyuncu olmak ister ve bir gün kısa bir film için bu iki dosta teklif gelir. Hemen kabul ederler ve film çekilmeye başlar. Her şey yolundadır ancak filmin bir sahnesinde Matthias ve Maxime'nin öpüşmesi gerekmektedir ancak bu durum onlar için en üst noktadır ve arkadaşlıkları bu olaydan sonra sarsılmaya ve evrimleşmeye başlar...

Matthias ve Maxime (2019) (Matthias et Maxime) Filmi Imdb'den 3,000 kişi tarafından oylandı ve 6,8 puan aldı. Bu film için editör puanı 6,2 olarak belirlendi. İyi Seyirler!

Teknik Detaylar

Kod :
General
Unique ID                                : 321141582718757634740990937147357148566 (0xF1999E7A5CAEBF3A183B1F0E51463596)
Complete name                            : /root/Desktop/5/Matthias.Ve.Maxime.2019.FHD.WEB-DL.x264.TR.FR.Filmbol.mkv
Format                                  : Matroska
Format version                          : Version 4 / Version 2
File size                                : 4.86 GiB
Duration                                : 2h 0mn
Overall bit rate                        : 5 788 Kbps
Movie name                              : Matthias et Maxime - Matthias ve Maxime - 2019 | Filmbol.org
Encoded date                            : UTC 2020-06-12 12:21:11
Writing application                      : mkvmerge v8.8.0 ('Wind at my back') 64bit
Writing library                          : libebml v1.3.3 + libmatroska v1.4.4

Video
ID                                      : 1
Format                                  : AVC
Format/Info                              : Advanced Video Codec
Format profile                          : [email protected]
Format settings, CABAC                  : Yes
Format settings, ReFrames                : 4 frames
Codec ID                                : V_MPEG4/ISO/AVC
Duration                                : 2h 0mn
Bit rate                                : 5 210 Kbps
Width                                    : 1 912 pixels
Height                                  : 1 032 pixels
Display aspect ratio                    : 1.85:1
Frame rate mode                          : Constant
Frame rate                              : 23.976 fps
Color space                              : YUV
Chroma subsampling                      : 4:2:0
Bit depth                                : 8 bits
Scan type                                : Progressive
Bits/(Pixel*Frame)                      : 0.110
Stream size                              : 4.38 GiB (90%)
Title                                    : Filmbol.org
Language                                : French
Default                                  : Yes
Forced                                  : No
Color range                              : Limited
Color primaries                          : BT.709
Transfer characteristics                : BT.709
Matrix coefficients                      : BT.709

Audio #1
ID                                      : 2
Format                                  : AC-3
Format/Info                              : Audio Coding 3
Mode extension                          : CM (complete main)
Format settings, Endianness              : Big
Codec ID                                : A_AC3
Duration                                : 2h 0mn
Bit rate mode                            : Constant
Bit rate                                : 192 Kbps
Channel(s)                              : 2 channels
Channel positions                        : Front: L R
Sampling rate                            : 48.0 KHz
Frame rate                              : 31.250 fps (1536 spf)
Compression mode                        : Lossy
Delay relative to video                  : -42ms
Stream size                              : 165 MiB (3%)
Title                                    : Filmbol.org
Language                                : Turkish
Default                                  : Yes
Forced                                  : No

Audio #2
ID                                      : 3
Format                                  : AC-3
Format/Info                              : Audio Coding 3
Mode extension                          : CM (complete main)
Format settings, Endianness              : Big
Codec ID                                : A_AC3
Duration                                : 2h 0mn
Bit rate mode                            : Constant
Bit rate                                : 384 Kbps
Channel(s)                              : 6 channels
Channel positions                        : Front: L C R, Side: L R, LFE
Sampling rate                            : 48.0 KHz
Frame rate                              : 31.250 fps (1536 spf)
Compression mode                        : Lossy
Delay relative to video                  : -42ms
Stream size                              : 330 MiB (7%)
Title                                    : Filmbol.org
Language                                : French
Default                                  : No
Forced                                  : No

Text
ID                                      : 4
Format                                  : UTF-8
Codec ID                                : S_TEXT/UTF8
Codec ID/Info                            : UTF-8 Plain Text
Duration                                : 1h 53mn
Bit rate                                : 51 bps
Count of elements                        : 1282
Stream size                              : 42.6 KiB (0%)
Title                                    : Filmbol.org
Language                                : Turkish
Default                                  : No
Forced                                  : No

Film Detayları


 Matthias ve Maxime

 Matthias ve Maxime

 Matthias ve Maxime


Film Fragmanı


Film Detayları



Zip Şifresi: filmbol.org Aşağıdaki butona tıklayarak kopyalabilirsiniz.


Mega linki şuan da gizli. Kullanıma açmak için konuya yorum yapın ve ardından sayfayı yenileyin.

Mega


Bunun için üzgünüz ancak, bu linke sadece premium üyeler erişebilir.

Filmbol Cloud



Hızlı Menü: