Filmbol Forum Film İndir BRRip XviD v Karlar Ülkesi (Frozen) - 2013 - TR - BRRip XviD
Bildirimi Kapat
Üyelik alımları açıldı.


Bildirimi Kapat
Mega linklerinin şikayet edilmemesi için global erişime kapatıp sadece yorum yapanlara açıyoruz. Bu linkleri gizleme işlemini mecburen yapıyoruz ve yorum yapmanızın siteye değil size faydası vardır. Teşekkürler yazmayı çok görüp, Random/Spam/Anlamsız mesajlar atarak forumu kirletip Mega linklerini açmaya çalışan kullanıcılara süresiz ban atacağız.

Premium Üyelik Al

Karlar Ülkesi (Frozen) - 2013 - TR - BRRip XviD
BroserBros
Karlar Ülkesi (Frozen) - 2013 - TR - BRRip XviD
3
298
  • Derecelendirme: 0/5 - 0 oy
  • 1
  • 2
  • 3
  • 4
  • 5
Konuyu Okuyanlar:1 Ziyaretçi
Şuan Online!
Filmin Yayınlanma Tarihi: 2013 
WWW
Şuan Online!
BroserBros Kurucu Admin
*******
Admin








 Karlar Ülkesi



Krallık, Karlar Kraliçesi (Snow Queen)'nin laneti sonrasında ebediyen sürecek bir kış mevsimine mahkum edilmiştir. Bu krallıkta yaşamakta olan maceracı ve iyi kalpli Anna, Karlar Kraliçesi'ni bulup laneti sona erdirmesini sağlayarak, şehrinde yaşayan insanları eski güzel günlerine döndürmeye karar verir. Masalsı bir yolculuğu çıkan Anna'nın yol arkadaşı ise usta bir dağcı olan Kristoff'tur. Başarıya ulaşmaları için Karlar Kraliçesi'ni görüp tanıyabilmeleri gerekmektedir. Görünürde basit olan bu plan, izbe dağdaki yolculuk ilerledikçe zorlaşmaya başlar. Mitolojik yaratıklar ve ürkütücü büyüler eşliğinde süren yolculuğun her dönemecinde ayrı bir tehlike ortaya çıkar. Yolculuğun asıl zor yanı ise zamanla yarışıyor oldukları gerçeğidir.

Karlar Ülkesi (2013) (Frozen) Filmi Imdb'den 560,000 kişi tarafından oylandı ve 7,4 puan aldı. Bu film için editör puanı 7,5 olarak belirlendi. İyi Seyirler!

Teknik Detaylar

Kod :
General
Complete name                            : /root/Desktop/1/Karlar.Ülkesi.2013.BRRip.XviD.TR.Filmbol.avi
Format                                  : AVI
Format/Info                              : Audio Video Interleave
File size                                : 700 MiB
Duration                                : 1h 42mn
Overall bit rate                        : 957 Kbps
Writing application                      : VirtualDubMod 1.5.10.2 (build 2540/release)
Writing library                          : VirtualDubMod build 2540/release

Video
ID                                      : 0
Format                                  : MPEG-4 Visual
Format profile                          : Advanced [email protected]
Format settings, BVOP                    : 1
Format settings, QPel                    : No
Format settings, GMC                    : No warppoints
Format settings, Matrix                  : Default (H.263)
Codec ID                                : XVID
Codec ID/Hint                            : XviD
Duration                                : 1h 42mn
Bit rate                                : 820 Kbps
Width                                    : 672 pixels
Height                                  : 304 pixels
Display aspect ratio                    : 2.2:1
Frame rate                              : 23.976 (24000/1001) fps
Color space                              : YUV
Chroma subsampling                      : 4:2:0
Bit depth                                : 8 bits
Scan type                                : Progressive
Compression mode                        : Lossy
Bits/(Pixel*Frame)                      : 0.167
Stream size                              : 599 MiB (86%)
Writing library                          : XviD 1.2.1 (UTC 2008-12-04)

Audio
ID                                      : 1
Format                                  : MPEG Audio
Format version                          : Version 1
Format profile                          : Layer 3
Mode                                    : Joint stereo
Mode extension                          : MS Stereo
Codec ID                                : 55
Codec ID/Hint                            : MP3
Duration                                : 1h 42mn
Bit rate mode                            : Constant
Bit rate                                : 128 Kbps
Channel(s)                              : 2 channels
Sampling rate                            : 48.0 KHz
Compression mode                        : Lossy
Stream size                              : 93.6 MiB (13%)
Alignment                                : Aligned on interleaves
Interleave, duration                    : 42 ms (1.00 video frame)
Interleave, preload duration            : 504 ms
Writing library                          : LAME3.99r
Encoding settings                        : -m j -V 4 -q 2 -lowpass 17 -b 128

Film Detayları


 Karlar Ülkesi

 Karlar Ülkesi

 Karlar Ülkesi


Film Fragmanı


Film Detayları



Zip Şifresi: filmbol.org Aşağıdaki butona tıklayarak kopyalabilirsiniz.



Uptobox ile indir

1Fichier ile indir

1Fichier'den İndiremiyor musun? Tıklayın!


Mega linki şuan da gizli. Kullanıma açmak için konuya yorum yapın ve ardından sayfayı yenileyin.

Mega


Bunun için üzgünüz ancak, bu linke sadece premium üyeler erişebilir.

Filmbol Cloud

Şuan Online!
Şuan Online!
BroserBros Kurucu Admin
*******
Admin

22.01.2021 Yönetici Notu:

Kırık linkler kontrol edildi, kaldırıldı ve yenilendi. Tüm linkler tamamen çalışır durumda.
Şuan Online!
Şuan Online!
Muha Uzman Üye
**
Uzman Üye

  • Konular0
  • Mesajlar14
  • Rep puanı 0
Cok guzel bir film
Şuan Offine!
Şuan Offine!
Furkan61 Cezalı Üye

  • Konular0
  • Mesajlar329
Saolun


Hızlı Menü: