Filmbol Forum Film İndir 1080P v Şirinler (The Smurfs) - 2011 - TR+ORG - 1080P
Bildirimi Kapat
Üyelik alımları açıldı.


Bildirimi Kapat
Mega linklerinin şikayet edilmemesi için global erişime kapatıp sadece yorum yapanlara açıyoruz. Bu linkleri gizleme işlemini mecburen yapıyoruz ve yorum yapmanızın siteye değil size faydası vardır. Teşekkürler yazmayı çok görüp, Random/Spam/Anlamsız mesajlar atarak forumu kirletip Mega linklerini açmaya çalışan kullanıcılara süresiz ban atacağız.

Premium Üyelik Al

Şirinler (The Smurfs) - 2011 - TR+ORG - 1080P
BroserBros
Şirinler (The Smurfs) - 2011 - TR+ORG - 1080P
3
352
  • Derecelendirme: 0/5 - 0 oy
  • 1
  • 2
  • 3
  • 4
  • 5
Konuyu Okuyanlar:1 Ziyaretçi
Şuan Online!
Filmin Yayınlanma Tarihi: 2011 
WWW
Şuan Online!
BroserBros Kurucu Admin
*******
Admin








 Şirinler



Kötü büyücü Gargamel, Mavi Ay kutlamaları sırasında Şirinler köyüne saldırır ve Şirinleri şelaledeki gizli bir geçide kovalar. Büyülü geçitten geçen mavi yaratıklar kendilerini bir anda 2011 New York'unda, Central Park’ın tam ortasında bulurlar. Sadece üç adet elma boyutunda olan Şirinler, Big Apple (Büyük Elma) olarak da bilinen New York'ta sıkışıp kalırlar. Fakat Gargamel ve korkunç kedisi Azman da Şirinler’in peşinden New York'a gelmiştir! Şirinler şimdi Gargamel'e yakalanmadan köylerine dönmenin yollarını arayacaklar...

Şirinler (2011) (The Smurfs) Filmi Imdb'den 85,000 kişi tarafından oylandı ve 5,4 puan aldı. Bu film için editör puanı 6,0 olarak belirlendi. İyi Seyirler!

Teknik Detaylar

Kod :
General
Unique ID                                : 75301778561719263180559717082383539582 (0x38A698533717632CBF8BC38A0DE05D7E)
Complete name                            : /root/Desktop/5/Şirinler.2011.1080p.BluRay.x264.TR.ENG.Filmbol.mkv
Format                                  : Matroska
Format version                          : Version 4 / Version 2
File size                                : 1.69 GiB
Duration                                : 1h 42mn
Overall bit rate                        : 2 361 Kbps
Movie name                              : Şirinler - The Smurfs - 2011 | Filmbol.org
Encoded date                            : UTC 2020-06-10 12:55:43
Writing application                      : mkvmerge v8.8.0 ('Wind at my back') 64bit
Writing library                          : libebml v1.3.3 + libmatroska v1.4.4

Video
ID                                      : 1
Format                                  : AVC
Format/Info                              : Advanced Video Codec
Format profile                          : [email protected]
Format settings, CABAC                  : Yes
Format settings, ReFrames                : 4 frames
Codec ID                                : V_MPEG4/ISO/AVC
Duration                                : 1h 42mn
Bit rate                                : 2 050 Kbps
Width                                    : 1 920 pixels
Height                                  : 1 072 pixels
Display aspect ratio                    : 16:9
Frame rate mode                          : Constant
Frame rate                              : 23.976 fps
Color space                              : YUV
Chroma subsampling                      : 4:2:0
Bit depth                                : 8 bits
Scan type                                : Progressive
Bits/(Pixel*Frame)                      : 0.042
Stream size                              : 1.47 GiB (87%)
Title                                    : 1080P - Filmbol.org
Writing library                          : x264 core 148
Encoding settings                        : cabac=1 / ref=4 / deblock=1:-1:-1 / analyse=0x3:0x133 / me=umh / subme=9 / psy=1 / psy_rd=1.00:0.15 / mixed_ref=1 / me_range=24 / chroma_me=1 / trellis=2 / 8x8dct=1 / cqm=0 / deadzone=21,11 / fast_pskip=0 / chroma_qp_offset=-3 / threads=12 / lookahead_threads=1 / sliced_threads=0 / nr=0 / decimate=1 / interlaced=0 / bluray_compat=0 / constrained_intra=0 / bframes=3 / b_pyramid=2 / b_adapt=2 / b_bias=0 / direct=3 / weightb=1 / open_gop=0 / weightp=2 / keyint=250 / keyint_min=23 / scenecut=40 / intra_refresh=0 / rc_lookahead=60 / rc=2pass / mbtree=1 / bitrate=2050 / ratetol=1.0 / qcomp=0.60 / qpmin=0 / qpmax=69 / qpstep=4 / cplxblur=20.0 / qblur=0.5 / vbv_maxrate=31250 / vbv_bufsize=31250 / nal_hrd=none / filler=0 / ip_ratio=1.40 / aq=1:1.00
Default                                  : Yes
Forced                                  : No

Audio #1
ID                                      : 2
Format                                  : AC-3
Format/Info                              : Audio Coding 3
Mode extension                          : CM (complete main)
Format settings, Endianness              : Big
Codec ID                                : A_AC3
Duration                                : 1h 42mn
Bit rate mode                            : Constant
Bit rate                                : 192 Kbps
Channel(s)                              : 6 channels
Channel positions                        : Front: L C R, Side: L R, LFE
Sampling rate                            : 44.1 KHz
Frame rate                              : 28.711 fps (1536 spf)
Compression mode                        : Lossy
Delay relative to video                  : 1s 707ms
Stream size                              : 141 MiB (8%)
Title                                    : Türkçe - Filmbol.org
Language                                : Turkish
Default                                  : Yes
Forced                                  : Yes

Audio #2
ID                                      : 4
Format                                  : AAC
Format/Info                              : Advanced Audio Codec
Format profile                          : LC
Codec ID                                : A_AAC
Duration                                : 1h 42mn
Bit rate                                : 116 Kbps
Channel(s)                              : 2 channels
Channel positions                        : Front: L R
Sampling rate                            : 48.0 KHz
Frame rate                              : 46.875 fps (1024 spf)
Compression mode                        : Lossy
Delay relative to video                  : -43ms
Stream size                              : 85.5 MiB (5%)
Title                                    : İngilizce - Filmbol.org
Default                                  : No
Forced                                  : No

Text
ID                                      : 3
Format                                  : UTF-8
Codec ID                                : S_TEXT/UTF8
Codec ID/Info                            : UTF-8 Plain Text
Duration                                : 1h 35mn
Bit rate                                : 77 bps
Count of elements                        : 1564
Stream size                              : 54.6 KiB (0%)
Title                                    : Türkçe Altyazı
Default                                  : No
Forced                                  : No

Film Detayları


 Şirinler

 Şirinler

 Şirinler


Film Fragmanı


Film Detayları



Zip Şifresi: filmbol.org Aşağıdaki butona tıklayarak kopyalabilirsiniz.


Uptobox ile indir

1Fichier ile indir

1Fichier'den İndiremiyor musun? Tıklayın!


Mega linki şuan da gizli. Kullanıma açmak için konuya yorum yapın ve ardından sayfayı yenileyin.

Mega


Bunun için üzgünüz ancak, bu linke sadece premium üyeler erişebilir.

Filmbol Cloud

Şuan Online!
Şuan Online!
BroserBros Kurucu Admin
*******
Admin

22.01.2021 Yönetici Notu:

Kırık linkler kontrol edildi, kaldırıldı ve yenilendi. Tüm linkler tamamen çalışır durumda.
Şuan Offine!
Şuan Offine!
Ceko Uzman Üye
**
Uzman Üye

  • Konular0
  • Mesajlar11
  • Rep puanı 0
Çok Sağol Usta ....
Şuan Offine!
Şuan Offine!
batsuhanul Yeni Üye
*
Üye

  • Konular0
  • Mesajlar1
  • Rep puanı 0
Teşekkürler


Hızlı Menü: