Filmbol Forum Film İndir 1080P v Yerçekimi (Gravity) - 2013 - TR+ORG - 1080P
Bildirimi Kapat
Üyelik alımları açıldı.


Bildirimi Kapat
Mega linklerinin şikayet edilmemesi için global erişime kapatıp sadece yorum yapanlara açıyoruz. Bu linkleri gizleme işlemini mecburen yapıyoruz ve yorum yapmanızın siteye değil size faydası vardır. Teşekkürler yazmayı çok görüp, Random/Spam/Anlamsız mesajlar atarak forumu kirletip Mega linklerini açmaya çalışan kullanıcılara süresiz ban atacağız.

Premium Üyelik Al

Yerçekimi (Gravity) - 2013 - TR+ORG - 1080P
BroserBros
Yerçekimi (Gravity) - 2013 - TR+ORG - 1080P
4
388
  • Derecelendirme: 0/5 - 0 oy
  • 1
  • 2
  • 3
  • 4
  • 5
Konuyu Okuyanlar:1 Ziyaretçi
Şuan Online!
Filmin Yayınlanma Tarihi: 2013 
WWW
Şuan Online!
BroserBros Kurucu Admin
*******
Admin








 Yerçekimi



Dr. Ryan Stone zeki bir tıp mühendisidir ve emekliliğinden önce son görevine çıkan yetenekli ve deneyimli astronot Matt Kowalsky'nin yönetimindeki mekikte ilk uzay yolculuğuna çıkar. Herşey yolunda gibi görünürken rutin bir keşif yürüyüşü sırasında bir felaket yaşanır. Mekik çarpan bir cisim sonucu paramparça olur. İki bilim insanı uzay boşluğunda yapayalnız kalırlar. Yeryüzü ile iletişimleri tamamen kopmuştur ve sonsuz karanlıkla başbaşadırlar. Şimdi korkunun yerini panik alır, üstelik var olan sınırlı oksijenleri de gitgide tükenmektedir. İkili eve, dünyaya dönüş yolunu bulabilecek midir?

Yerçekimi (2013) (Gravity) Filmi Imdb'den 750,000 kişi tarafından oylandı ve 7,7 puan aldı. Bu film için editör puanı 9,0 olarak belirlendi. İyi Seyirler!

Teknik Detaylar

Kod :
General
Unique ID                                : 207913370245252262457481410872169648264 (0x9C6AA89758F8344B6413ED39E7F2D088)
Complete name                            : /root/Desktop/5/Yerçekimi.2013.1080p.BluRay.x264.TR.ENG.Filmbol.mkv
Format                                  : Matroska
Format version                          : Version 4 / Version 2
File size                                : 1.53 GiB
Duration                                : 1h 30mn
Overall bit rate                        : 2 407 Kbps
Movie name                              : Yerçekimi - Gravity - 2013 | Filmbol.org
Encoded date                            : UTC 2020-06-06 15:54:38
Writing application                      : mkvmerge v8.8.0 ('Wind at my back') 64bit
Writing library                          : libebml v1.3.3 + libmatroska v1.4.4

Video
ID                                      : 1
Format                                  : AVC
Format/Info                              : Advanced Video Codec
Format profile                          : [email protected]
Format settings, CABAC                  : Yes
Format settings, ReFrames                : 4 frames
Codec ID                                : V_MPEG4/ISO/AVC
Duration                                : 1h 30mn
Bit rate                                : 1 864 Kbps
Width                                    : 1 920 pixels
Height                                  : 800 pixels
Display aspect ratio                    : 2.40:1
Frame rate mode                          : Constant
Frame rate                              : 23.976 (24000/1001) fps
Original frame rate                      : 23.976 (23976/1000) fps
Color space                              : YUV
Chroma subsampling                      : 4:2:0
Bit depth                                : 8 bits
Scan type                                : Progressive
Bits/(Pixel*Frame)                      : 0.051
Stream size                              : 1.18 GiB (77%)
Title                                    : 1080P - Filmbol.org
Writing library                          : x264 core 135 r2 f0c1c53
Encoding settings                        : cabac=1 / ref=4 / deblock=1:-1:-1 / analyse=0x3:0x133 / me=umh / subme=9 / psy=1 / psy_rd=1.00:0.15 / mixed_ref=1 / me_range=24 / chroma_me=1 / trellis=2 / 8x8dct=1 / cqm=0 / deadzone=21,11 / fast_pskip=0 / chroma_qp_offset=-3 / threads=36 / lookahead_threads=3 / sliced_threads=0 / nr=0 / decimate=1 / interlaced=0 / bluray_compat=0 / constrained_intra=0 / bframes=3 / b_pyramid=2 / b_adapt=2 / b_bias=0 / direct=3 / weightb=1 / open_gop=0 / weightp=2 / keyint=250 / keyint_min=23 / scenecut=40 / intra_refresh=0 / rc_lookahead=60 / rc=2pass / mbtree=1 / bitrate=1864 / ratetol=1.0 / qcomp=0.60 / qpmin=0 / qpmax=69 / qpstep=4 / cplxblur=20.0 / qblur=0.5 / vbv_maxrate=31250 / vbv_bufsize=31250 / nal_hrd=none / ip_ratio=1.40 / aq=1:1.00
Default                                  : Yes
Forced                                  : No
Color range                              : Limited
Color primaries                          : BT.709
Matrix coefficients                      : BT.709

Audio #1
ID                                      : 2
Format                                  : AC-3
Format/Info                              : Audio Coding 3
Mode extension                          : CM (complete main)
Format settings, Endianness              : Big
Codec ID                                : A_AC3
Duration                                : 1h 30mn
Bit rate mode                            : Constant
Bit rate                                : 448 Kbps
Channel(s)                              : 6 channels
Channel positions                        : Front: L C R, Side: L R, LFE
Sampling rate                            : 48.0 KHz
Frame rate                              : 31.250 fps (1536 spf)
Compression mode                        : Lossy
Stream size                              : 292 MiB (19%)
Title                                    : Türkçe - Filmbol.org
Language                                : Turkish
Default                                  : Yes
Forced                                  : Yes

Audio #2
ID                                      : 3
Format                                  : AAC
Format/Info                              : Advanced Audio Codec
Format profile                          : LC
Codec ID                                : A_AAC
Duration                                : 1h 30mn
Bit rate                                : 93.3 Kbps
Channel(s)                              : 2 channels
Channel positions                        : Front: L R
Sampling rate                            : 48.0 KHz
Frame rate                              : 46.875 fps (1024 spf)
Compression mode                        : Lossy
Stream size                              : 60.7 MiB (4%)
Title                                    : İngilizce - Filmbol.org
Language                                : English
Default                                  : No
Forced                                  : No

Text
ID                                      : 4
Format                                  : UTF-8
Codec ID                                : S_TEXT/UTF8
Codec ID/Info                            : UTF-8 Plain Text
Duration                                : 1h 22mn
Bit rate                                : 46 bps
Count of elements                        : 770
Stream size                              : 28.2 KiB (0%)
Title                                    : Türkçe Altyazı
Language                                : Turkish
Default                                  : No
Forced                                  : No

Film Detayları


 Yerçekimi

 Yerçekimi

 Yerçekimi


Film Fragmanı


Film Detayları



Zip Şifresi: filmbol.org Aşağıdaki butona tıklayarak kopyalabilirsiniz.


Uptobox ile indir

1Fichier ile indir

1Fichier'den İndiremiyor musun? Tıklayın!


Mega linki şuan da gizli. Kullanıma açmak için konuya yorum yapın ve ardından sayfayı yenileyin.

Mega


Bunun için üzgünüz ancak, bu linke sadece premium üyeler erişebilir.

Filmbol Cloud

Şuan Online!
Şuan Online!
BroserBros Kurucu Admin
*******
Admin

22.01.2021 Yönetici Notu:

Kırık linkler kontrol edildi, kaldırıldı ve yenilendi. Tüm linkler tamamen çalışır durumda.
Şuan Offine!
Şuan Offine!
blue_mpact Uzman Üye
**
Uzman Üye

  • Konular0
  • Mesajlar10
  • Rep puanı 0
teşekkürler

teşekkürler
Şuan Offine!
Şuan Offine!
azdeveloper Uzman Üye
**
Uzman Üye

  • Konular0
  • Mesajlar8
  • Rep puanı 0
super
Şuan Offine!
Şuan Offine!
Ilsarun Uzman Üye
**
Uzman Üye

  • Konular0
  • Mesajlar20
  • Rep puanı 0
Çok teşekkür ediyorum.


Hızlı Menü: