Filmbol Forum Film İndir BRRip XviD v Queen & Slim (Queen ve Slim) - 2019 - TR - BRRip XviD
Bildirimi Kapat
Üyelik alımları açıldı.


Bildirimi Kapat
Mega linklerinin şikayet edilmemesi için global erişime kapatıp sadece yorum yapanlara açıyoruz. Bu linkleri gizleme işlemini mecburen yapıyoruz ve yorum yapmanızın siteye değil size faydası vardır. Teşekkürler yazmayı çok görüp, Random/Spam/Anlamsız mesajlar atarak forumu kirletip Mega linklerini açmaya çalışan kullanıcılara süresiz ban atacağız.

Premium Üyelik Al

Queen & Slim (Queen ve Slim) - 2019 - TR - BRRip XviD
BroserBros
Queen & Slim (Queen ve Slim) - 2019 - TR - BRRip XviD
1
273
  • Derecelendirme: 0/5 - 0 oy
  • 1
  • 2
  • 3
  • 4
  • 5
Konuyu Okuyanlar:1 Ziyaretçi
Şuan Online!
Filmin Yayınlanma Tarihi: 2019 
WWW
Şuan Online!
BroserBros Kurucu Admin
*******
Admin








 Queen & Slim



Siyahi bir adam ile kadın yolları kesişmeleri sonucu tanışırlar. Beraber takılmaya başladıktan bir süre sonra yanlarına bir polis yaklaşır ve trafik ihlali gerekçesiyle ceza kesmeye çalışır. Bu sırada bir tartışma alevlenir ve bu tartışma kavgaya dönüşür. Siyahi adam son çare olarak istemeden polisi öldürür ve bir anda yeni tanışan çift, iki yeni suçlu haline dönüşür...

Queen & Slim (2019) (Queen ve Slim) Filmi Imdb'den 15,000 kişi tarafından oylandı ve 7,0 puan aldı. Bu film için editör puanı 6,8 olarak belirlendi. İyi Seyirler!

Teknik Detaylar

Kod :
General
Complete name                            : /root/Desktop/8/Queen.and.Slim.2019.BRRip.XviD.TR.Filmbol.avi
Format                                  : AVI
Format/Info                              : Audio Video Interleave
File size                                : 1.27 GiB
Duration                                : 2h 12mn
Overall bit rate                        : 1 378 Kbps

Video
ID                                      : 0
Format                                  : MPEG-4 Visual
Format profile                          : [email protected]
Format settings, BVOP                    : No
Format settings, QPel                    : No
Format settings, GMC                    : No warppoints
Format settings, Matrix                  : Default (H.263)
Codec ID                                : XVID
Codec ID/Hint                            : XviD
Duration                                : 2h 12mn
Bit rate                                : 1 237 Kbps
Width                                    : 720 pixels
Height                                  : 302 pixels
Display aspect ratio                    : 2.40:1
Frame rate                              : 23.976 fps
Color space                              : YUV
Chroma subsampling                      : 4:2:0
Bit depth                                : 8 bits
Scan type                                : Progressive
Compression mode                        : Lossy
Bits/(Pixel*Frame)                      : 0.237
Stream size                              : 1.14 GiB (90%)
Writing library                          : Lavc58.35.100

Audio
ID                                      : 1
Format                                  : MPEG Audio
Format version                          : Version 1
Format profile                          : Layer 3
Mode                                    : Joint stereo
Codec ID                                : 55
Codec ID/Hint                            : MP3
Duration                                : 2h 12mn
Bit rate mode                            : Constant
Bit rate                                : 128 Kbps
Channel(s)                              : 2 channels
Sampling rate                            : 48.0 KHz
Compression mode                        : Lossy
Stream size                              : 121 MiB (9%)
Alignment                                : Aligned on interleaves
Interleave, duration                    : 24 ms (0.58 video frame)

Film Detayları


 Queen & Slim

 Queen & Slim

 Queen & Slim


Film Fragmanı


Film Detayları



Zip Şifresi: filmbol.org Aşağıdaki butona tıklayarak kopyalabilirsiniz.



Uptobox ile indir

1Fichier ile indir

1Fichier'den İndiremiyor musun? Tıklayın!


Mega linki şuan da gizli. Kullanıma açmak için konuya yorum yapın ve ardından sayfayı yenileyin.

Mega


Bunun için üzgünüz ancak, bu linke sadece premium üyeler erişebilir.

Filmbol Cloud

Şuan Online!
Şuan Online!
BroserBros Kurucu Admin
*******
Admin

24.01.2021 Yönetici Notu:

Kırık linkler kontrol edildi, kaldırıldı ve yenilendi. Tüm linkler tamamen çalışır durumda.


Hızlı Menü: