Filmbol Forum Film İndir 1080P v Hayat Kitabı (The Book of Life) - 2014 - TR+ORG - 1080P
Bildirimi Kapat
Üyelik alımları açıldı.


Bildirimi Kapat
Mega linklerinin şikayet edilmemesi için global erişime kapatıp sadece yorum yapanlara açıyoruz. Bu linkleri gizleme işlemini mecburen yapıyoruz ve yorum yapmanızın siteye değil size faydası vardır. Teşekkürler yazmayı çok görüp, Random/Spam/Anlamsız mesajlar atarak forumu kirletip Mega linklerini açmaya çalışan kullanıcılara süresiz ban atacağız.

Premium Üyelik Al

Hayat Kitabı (The Book of Life) - 2014 - TR+ORG - 1080P
BroserBros
Hayat Kitabı (The Book of Life) - 2014 - TR+ORG - 1080P
1
273
  • Derecelendirme: 0/5 - 0 oy
  • 1
  • 2
  • 3
  • 4
  • 5
Konuyu Okuyanlar:1 Ziyaretçi
Şuan Online!
Filmin Yayınlanma Tarihi: 2014 
WWW
Şuan Online!
BroserBros Kurucu Admin
*******
Admin








 Hayat Kitabı



Müzede tur rehberi görevi yapmakta olan Mary Beth, normal çocuklar için normal bir müze turu hazırlar. Fakat çocuklar şımarık olduğunda onlara özel olarak gizli bir odaya götürür ve burada yer alan Hayat Kitabı eserine göz atlamalarını sağlar. Kitap o kadar geniş bir hikaye yelpazesine sahiptir ki, bu şımarık çocukların bile ilgisini çekmeyi başarır...

Hayat Kitabı (2014) (The Book of Life) Filmi Imdb'den 65,000 kişi tarafından oylandı ve 7,3 puan aldı. Bu film için editör puanı 6,5 olarak belirlendi. İyi Seyirler!

Teknik Detaylar

Kod :
General
Unique ID                                : 316513040611350155841557428867542098516 (0xEE1E31BBB1DDF26CB283FF3C8DC92254)
Complete name                            : /root/Desktop/1/Hayat.Kitabı.2014.1080p.BluRay.x264.TR.ENG.Filmbol.mkv
Format                                  : Matroska
Format version                          : Version 4 / Version 2
File size                                : 1.74 GiB
Duration                                : 1h 35mn
Overall bit rate                        : 2 604 Kbps
Movie name                              : Hayat Kitabı - The Book of Life - 2014 | Filmbol.org
Encoded date                            : UTC 2020-05-29 13:56:58
Writing application                      : mkvmerge v8.8.0 ('Wind at my back') 64bit
Writing library                          : libebml v1.3.3 + libmatroska v1.4.4

Video
ID                                      : 1
Format                                  : AVC
Format/Info                              : Advanced Video Codec
Format profile                          : [email protected]
Format settings, CABAC                  : Yes
Format settings, ReFrames                : 4 frames
Codec ID                                : V_MPEG4/ISO/AVC
Duration                                : 1h 35mn
Bit rate                                : 2 060 Kbps
Width                                    : 1 920 pixels
Height                                  : 808 pixels
Display aspect ratio                    : 2.40:1
Frame rate mode                          : Constant
Frame rate                              : 23.976 (24000/1001) fps
Original frame rate                      : 23.976 (23976/1000) fps
Color space                              : YUV
Chroma subsampling                      : 4:2:0
Bit depth                                : 8 bits
Scan type                                : Progressive
Bits/(Pixel*Frame)                      : 0.055
Stream size                              : 1.37 GiB (79%)
Title                                    : 1080P - Filmbol.org
Writing library                          : x264 core 142 r2479 dd79a61
Encoding settings                        : cabac=1 / ref=4 / deblock=1:-1:-1 / analyse=0x3:0x133 / me=umh / subme=9 / psy=1 / psy_rd=1.00:0.15 / mixed_ref=1 / me_range=24 / chroma_me=1 / trellis=2 / 8x8dct=1 / cqm=0 / deadzone=21,11 / fast_pskip=0 / chroma_qp_offset=-3 / threads=48 / lookahead_threads=4 / sliced_threads=0 / nr=0 / decimate=1 / interlaced=0 / bluray_compat=0 / constrained_intra=0 / bframes=3 / b_pyramid=2 / b_adapt=2 / b_bias=0 / direct=3 / weightb=1 / open_gop=0 / weightp=2 / keyint=250 / keyint_min=23 / scenecut=40 / intra_refresh=0 / rc_lookahead=60 / rc=2pass / mbtree=1 / bitrate=2060 / ratetol=1.0 / qcomp=0.60 / qpmin=0 / qpmax=69 / qpstep=4 / cplxblur=20.0 / qblur=0.5 / vbv_maxrate=31250 / vbv_bufsize=31250 / nal_hrd=none / filler=0 / ip_ratio=1.40 / aq=1:1.00
Default                                  : Yes
Forced                                  : No
Color range                              : Limited
Color primaries                          : BT.709
Matrix coefficients                      : BT.709

Audio #1
ID                                      : 2
Format                                  : AC-3
Format/Info                              : Audio Coding 3
Mode extension                          : CM (complete main)
Format settings, Endianness              : Big
Codec ID                                : A_AC3
Duration                                : 1h 35mn
Bit rate mode                            : Constant
Bit rate                                : 448 Kbps
Channel(s)                              : 6 channels
Channel positions                        : Front: L C R, Side: L R, LFE
Sampling rate                            : 48.0 KHz
Frame rate                              : 31.250 fps (1536 spf)
Compression mode                        : Lossy
Stream size                              : 306 MiB (17%)
Title                                    : Türkçe - Filmbol.org
Language                                : Turkish
Default                                  : Yes
Forced                                  : Yes

Audio #2
ID                                      : 3
Format                                  : AAC
Format/Info                              : Advanced Audio Codec
Format profile                          : LC
Codec ID                                : A_AAC
Duration                                : 1h 35mn
Bit rate                                : 93.7 Kbps
Channel(s)                              : 2 channels
Channel positions                        : Front: L R
Sampling rate                            : 48.0 KHz
Frame rate                              : 46.875 fps (1024 spf)
Compression mode                        : Lossy
Stream size                              : 63.9 MiB (4%)
Title                                    : İngilizce - Filmbol.org
Language                                : English
Default                                  : No
Forced                                  : No

Film Detayları


 Hayat Kitabı

 Hayat Kitabı

 Hayat Kitabı


Film Fragmanı


Film Detayları



Zip Şifresi: filmbol.org Aşağıdaki butona tıklayarak kopyalabilirsiniz.


Uptobox ile indir

1Fichier ile indir

1Fichier'den İndiremiyor musun? Tıklayın!


Mega linki şuan da gizli. Kullanıma açmak için konuya yorum yapın ve ardından sayfayı yenileyin.

Mega


Bunun için üzgünüz ancak, bu linke sadece premium üyeler erişebilir.

Filmbol Cloud

Şuan Online!
Şuan Online!
BroserBros Kurucu Admin
*******
Admin

24.01.2021 Yönetici Notu:

Kırık linkler kontrol edildi, kaldırıldı ve yenilendi. Tüm linkler tamamen çalışır durumda.


Hızlı Menü: