Filmbol Forum Film İndir BRRip XviD v 6 Süper Kahraman (Big Hero 6) - 2014 - TR - BRRip XviD
Bildirimi Kapat
Üyelik alımları açıldı.


Bildirimi Kapat
Mega linklerinin şikayet edilmemesi için global erişime kapatıp sadece yorum yapanlara açıyoruz. Bu linkleri gizleme işlemini mecburen yapıyoruz ve yorum yapmanızın siteye değil size faydası vardır. Teşekkürler yazmayı çok görüp, Random/Spam/Anlamsız mesajlar atarak forumu kirletip Mega linklerini açmaya çalışan kullanıcılara süresiz ban atacağız.

Premium Üyelik Al

6 Süper Kahraman (Big Hero 6) - 2014 - TR - BRRip XviD
BroserBros
6 Süper Kahraman (Big Hero 6) - 2014 - TR - BRRip XviD
4
332
  • Derecelendirme: 0/5 - 0 oy
  • 1
  • 2
  • 3
  • 4
  • 5
Konuyu Okuyanlar:1 Ziyaretçi
Şuan Online!
Filmin Yayınlanma Tarihi: 2014 
WWW
Şuan Online!
BroserBros Kurucu Admin
*******
Admin








 6 Süper Kahraman



Hiro Hamada, yetenekli bir robot tasarımcısıdır. Genç Hamada'nın kenti San Fransokyo kötü adamlar tarafından saldırıya uğramak üzeredir ve bu konuda Hamada'ya oldukça büyük bir görev düşmektedir; yeni bir robot tasarlayarak şehri kurtarmak zorundadır...

6 Süper Kahraman (2014) (Big Hero 6) Filmi Imdb'den 400,000 kişi tarafından oylandı ve 7,8 puan aldı. Bu film için editör puanı 8,5 olarak belirlendi. İyi Seyirler!

Teknik Detaylar

Kod :
General
Complete name                            : /root/Desktop/6.Süper.Kahraman.2014.BRRip.XviD.TR.Filmbol.avi
Format                                  : AVI
Format/Info                              : Audio Video Interleave
Format profile                          : OpenDML
Format settings                          : rec
File size                                : 698 MiB
Duration                                : 1h 41mn
Overall bit rate                        : 958 Kbps
Writing application                      : AVI-Mux GUI 1.17.8.3, Feb 16 201019:42:50

Video
ID                                      : 0
Format                                  : MPEG-4 Visual
Format profile                          : Advanced [email protected]
Format settings, BVOP                    : 2
Format settings, QPel                    : No
Format settings, GMC                    : No warppoints
Format settings, Matrix                  : Default (H.263)
Codec ID                                : XVID
Codec ID/Hint                            : XviD
Duration                                : 1h 41mn
Bit rate                                : 826 Kbps
Width                                    : 656 pixels
Height                                  : 272 pixels
Display aspect ratio                    : 2.40:1
Frame rate                              : 23.976 (24000/1001) fps
Color space                              : YUV
Chroma subsampling                      : 4:2:0
Bit depth                                : 8 bits
Scan type                                : Progressive
Compression mode                        : Lossy
Bits/(Pixel*Frame)                      : 0.193
Stream size                              : 602 MiB (86%)
Writing library                          : XviD 1.2.1 (UTC 2008-12-04)

Audio
ID                                      : 1
Format                                  : MPEG Audio
Format version                          : Version 1
Format profile                          : Layer 3
Mode                                    : Joint stereo
Codec ID                                : 55
Codec ID/Hint                            : MP3
Duration                                : 1h 41mn
Bit rate mode                            : Constant
Bit rate                                : 128 Kbps
Channel(s)                              : 2 channels
Sampling rate                            : 48.0 KHz
Compression mode                        : Lossy
Stream size                              : 93.3 MiB (13%)
Alignment                                : Aligned on interleaves
Interleave, duration                    : 817 ms (19.59 video frames)
Interleave, preload duration            : 216 ms
Title                                    : Big.Hero.6.2014.TR
Writing library                          : LAME3.99r
Encoding settings                        : -m j -V 4 -q 2 -lowpass 17 -b 128

Film Detayları


 6 Süper Kahraman

 6 Süper Kahraman

 6 Süper Kahraman


Film Fragmanı


Film Detayları



Zip Şifresi: filmbol.org Aşağıdaki butona tıklayarak kopyalabilirsiniz.



[uptoboxnew]https://uptobox.com/i9zhup1lx0vt/uptoboxnew]

1Fichier ile indir

1Fichier'den İndiremiyor musun? Tıklayın!


Mega linki şuan da gizli. Kullanıma açmak için konuya yorum yapın ve ardından sayfayı yenileyin.

Mega


Bunun için üzgünüz ancak, bu linke sadece premium üyeler erişebilir.

Filmbol Cloud

Şuan Online!
Şuan Online!
BroserBros Kurucu Admin
*******
Admin

24.01.2021 Yönetici Notu:

Kırık linkler kontrol edildi, kaldırıldı ve yenilendi. Tüm linkler tamamen çalışır durumda.
Şuan Offine!
Şuan Offine!
wert1985 Uzman Üye
**
Uzman Üye

  • Konular0
  • Mesajlar7
  • Rep puanı 0
.........
Şuan Offine!
Şuan Offine!
Furkan61 Cezalı Üye

  • Konular0
  • Mesajlar329
teşekkürler
Şuan Offine!
Şuan Offine!
miracadam76 Cezalı Üye

  • Konular0
  • Mesajlar11
lllllll


Hızlı Menü: